Торренты   
 
 

 

Алиса в стране чудес 3D / Alice in Wonderland (Тим Бёртон) [2010 г, 1080p, Anamorph SideBySide]

Рейтинг 3D:
112 голосов
8.4
Рейтинг фильма:
113 голосов
7.8
 
Вы должны быть авторизированы,
чтобы ставить оценки


Алиса в стране чудес 3D / Alice in Wonderland 3D
Год выпуска: 2010
Страна: США
Жанр: Фэнтези, Приключения, Семейный
Продолжительность: 01:48:34
Перевод: Профессиональный (полное дублирование)
Режиссер: Тим Бёртон
Роли озвучивали: Джонни Депп, Миа Васиковска, Хелена Бонем Картер, Энн Хэтэуэй, Криспин Гловер, Мэтт Лукас, Майкл Шин, Стивен Фрай, Алан Рикман, Барбара Уиндсор.
Роли дублировали: Александр Баргман, Ангелина Миримская, Елена Морозова, Сергей Маковецкий, Александр Ширвиндт, Илья Любимов, Марина Неёлова, Владис Гольк.
Описание: Жизнь 19-летней Алисы Кингсли принимает неожиданный оборот. На викторианской вечеринке, устроенной в её честь, Алисе делает предложение Хэмиш, богатый, но глупый сын лорда и леди Эскот. Не дав ответа, девушка убегает и идёт за кроликом, замеченным ею на лужайке. Кролик как кролик, вот только он одет в камзол и всё время смотрит на карманные часы.
Алиса гонится за Белым Кроликом через весь луг и видит, как он исчезает в кроличьей норе. Затем, неожиданно, Алиса падает туда сама, летит вниз по странному, сказочному туннелю и приземляется в круглом зале со множеством дверей. Выпив из бутылки с надписью «ВЫПЕЙ МЕНЯ», она уменьшается в размерах, а откусив от пирожного с надписью «СЪЕШЬ МЕНЯ» — вырастает. Наконец, миновав череду злоключений, Алиса попадает через одну из дверей в чудесный фантастический мир, который его обитатели называют Подземной страной.
Там её ждёт целый парад колоритных персонажей: хвастливая Соня, сумасшедший Шляпник, глумливый Чеширский Кот, накурившаяся кальяном гусеница по имени Абессалом, жутковатая Белая Королева и её злобная сестра, Королева Червей, вздорная и раздражительная правительница Подземной страны.
Формат 3d: Anamorph SideBySide
Порядок ракурсов: Параллельная пара
Качество: HDRip (c BDRip by eugeniy)
Формат: MKV
Видео: AVC / 1920x1080 / 23.976fps / 9000 Kbps
Аудио [rus]: AC3 / 6ch / 640 Kbps / 48 KHz
Аудио [eng]: DTS / 6ch / 1510 Kbps / 48 KHz

MediaInfo

General
Complete name : O:\Downloads\Alice in Wonderland 3d.1080p.anmf.mkv
Format : Matroska
File size : 8.46 GiB
Duration : 1h 48mn
Overall bit rate : 11.1 Mbps
Encoded date : UTC 2010-12-16 16:06:20
Writing application : mkvmerge v4.0.0 ('The Stars were mine') сборка от Jun 11 2010 23:24:27
Writing library : libebml v1.0.0 + libmatroska v1.0.0
Video
ID : 1
Format : AVC
Format/Info : Advanced Video Codec
Format profile : High@L4.0
Format settings, CABAC : Yes
Format settings, ReFrames : 4 frames
Codec ID : V_MPEG4/ISO/AVC
Duration : 1h 48mn
Bit rate : 9 000 Kbps
Width : 1 920 pixels
Height : 1 080 pixels
Display aspect ratio : 16:9
Frame rate : 23.976 fps
Color space : YUV
Chroma subsampling : 4:2:0
Bit depth : 8 bits
Scan type : Progressive
Bits/(Pixel*Frame) : 0.181
Stream size : 6.66 GiB (79%)
Writing library : x264 core 98 r1649 c54c47d
Encoding settings : cabac=1 / ref=3 / deblock=1:0:0 / analyse=0x3:0x113 / me=hex / subme=7 / psy=1 / psy_rd=1.00:0.00 / mixed_ref=1 / me_range=16 / chroma_me=1 / trellis=1 / 8x8dct=1 / cqm=0 / deadzone=21,11 / fast_pskip=1 / chroma_qp_offset=-2 / threads=3 / sliced_threads=0 / nr=0 / decimate=1 / interlaced=0 / constrained_intra=0 / bframes=3 / b_pyramid=2 / b_adapt=1 / b_bias=0 / direct=1 / weightb=1 / weightp=2 / keyint=250 / keyint_min=25 / scenecut=40 / intra_refresh=0 / rc_lookahead=40 / rc=2pass / mbtree=1 / bitrate=9000 / ratetol=1.0 / qcomp=0.60 / qpmin=10 / qpmax=51 / qpstep=4 / cplxblur=20.0 / qblur=0.5 / ip_ratio=1.40 / aq=1:1.00
Language : English
Audio #1
ID : 2
Format : AC-3
Format/Info : Audio Coding 3
Mode extension : CM (complete main)
Codec ID : A_AC3
Duration : 1h 48mn
Bit rate mode : Constant
Bit rate : 640 Kbps
Channel(s) : 6 channels
Channel positions : Front: L C R, Side: L R, LFE
Sampling rate : 48.0 KHz
Bit depth : 16 bits
Stream size : 497 MiB (6%)
Language : Russian
Audio #2
ID : 3
Format : DTS
Format/Info : Digital Theater Systems
Format profile : ES
Codec ID : A_DTS
Duration : 1h 48mn
Bit rate mode : Constant
Bit rate : 1 510 Kbps
Channel(s) : 6 channels
Channel positions : Front: L C R, Side: L R, LFE
Sampling rate : 48.0 KHz
Bit depth : 24 bits
Stream size : 1.15 GiB (14%)
Language : English

Скриншоты (превью с кликом)

Остальные раздачи этого фильма (6)
Благодарности релизеру (71)

Торрент:

Статус:

Размер:

Зарегистрирован   [ 2010-12-16 21:16 ]

проверено

8.46 GB

 
 Мнение о фильме (21)

Пред.  1, 2






спасибо 3d на высоте на LG42LF620V показывает с флешки изображение на весь экран-----ещё раз спасибо!!!
 

Страница 2 из 2

Пред.  1, 2