Торренты   
 
 

 

Дом-монстр 3Д / Monster House 3D (Гил Кинан) [2006 г, 1080p, Anamorph SideBySide]

Рейтинг 3D:
7 голосов
8.1
Рейтинг фильма:
7 голосов
8.0
 
Вы должны быть авторизированы,
чтобы ставить оценки


Дом-монстр 3Д / Monster House 3D
Год выпуска: 2006
Страна: США
Жанр: Мультфильм, Ужасы, Комедия, Детектив
Продолжительность: 01:30:38
Перевод: Профессиональный (полное дублирование)
Режиссер: Гил Кинан
Роли озвучивали: Райан Ньюман, Стив Бушеми, Митчел Муссо, Кэтрин О’Хара, Фред Уиллард, Сэм Лернер, Вуди Шульц, Йен МакКоннел, Мэгги Джилленхол, Джейсон Ли, Кевин Джеймс, Кэтлин Тёрнер.
Описание: Хорошо быть мальчишкой. Каждый день, как вся жизнь! Столько всего вокруг: девчонки, мороженое, драки, учебники, футбол. Насыщенный день, короче, получается. А вот если ты однажды обнаружил, что дом, который стоит по соседству с домом твоей семьи — вовсе не дом… А попросту говоря — монстр. Чудовище, в общем. Такие дела.
Ну вот, история эта про то, как три приятеля — ДиДжей, Чёдер и Дженни — обнаружили, что дом, находящийся неподалеку, самый настоящий монстр. Только никто им не верил. Мало ли, чего навыдумывают дети… Только зря они так. Ребята их предупреждали…
Формат 3d: Anamorph SideBySide
Порядок ракурсов: Перекрёстная пара
Качество: HDRip (c BDRip by eugeniy)
Формат: MKV
Видео: AVC / 1920x1080 / 23.976fps / 9000 Kbps
Аудио [rus]: AC3 / 6ch / 448 Kbps / 48 KHz
Аудио [eng]: AC3 / 6ch / 640 Kbps / 48 KHz

MediaInfo

General
Complete name : O:\Downloads\Monster House 3D.1080p.anmf.mkv
Format : Matroska
File size : 6.39 GiB
Duration : 1h 30mn
Overall bit rate : 10.1 Mbps
Encoded date : UTC 2010-12-17 09:11:50
Writing application : mkvmerge v4.0.0 ('The Stars were mine') сборка от Jun 11 2010 23:24:27
Writing library : libebml v1.0.0 + libmatroska v1.0.0
Video
ID : 1
Format : AVC
Format/Info : Advanced Video Codec
Format profile : High@L4.0
Format settings, CABAC : Yes
Format settings, ReFrames : 4 frames
Codec ID : V_MPEG4/ISO/AVC
Duration : 1h 30mn
Bit rate : 9 000 Kbps
Width : 1 920 pixels
Height : 1 080 pixels
Display aspect ratio : 16:9
Frame rate : 23.976 fps
Color space : YUV
Chroma subsampling : 4:2:0
Bit depth : 8 bits
Scan type : Progressive
Bits/(Pixel*Frame) : 0.181
Stream size : 5.58 GiB (87%)
Writing library : x264 core 98 r1649 c54c47d
Encoding settings : cabac=1 / ref=3 / deblock=1:0:0 / analyse=0x3:0x113 / me=hex / subme=7 / psy=1 / psy_rd=1.00:0.00 / mixed_ref=1 / me_range=16 / chroma_me=1 / trellis=1 / 8x8dct=1 / cqm=0 / deadzone=21,11 / fast_pskip=1 / chroma_qp_offset=-2 / threads=3 / sliced_threads=0 / nr=0 / decimate=1 / interlaced=0 / constrained_intra=0 / bframes=3 / b_pyramid=2 / b_adapt=1 / b_bias=0 / direct=1 / weightb=1 / weightp=2 / keyint=250 / keyint_min=25 / scenecut=40 / intra_refresh=0 / rc_lookahead=40 / rc=2pass / mbtree=1 / bitrate=9000 / ratetol=1.0 / qcomp=0.60 / qpmin=10 / qpmax=51 / qpstep=4 / cplxblur=20.0 / qblur=0.5 / ip_ratio=1.40 / aq=1:1.00
Language : English
Audio #1
ID : 2
Format : AC-3
Format/Info : Audio Coding 3
Mode extension : CM (complete main)
Codec ID : A_AC3
Duration : 1h 30mn
Bit rate mode : Constant
Bit rate : 448 Kbps
Channel(s) : 6 channels
Channel positions : Front: L C R, Side: L R, LFE
Sampling rate : 48.0 KHz
Bit depth : 16 bits
Stream size : 290 MiB (4%)
Title : AC3 5.1 @ 448 kbps - Дублированный
Language : Russian
Audio #2
ID : 3
Format : AC-3
Format/Info : Audio Coding 3
Mode extension : CM (complete main)
Codec ID : A_AC3
Duration : 1h 30mn
Bit rate mode : Constant
Bit rate : 640 Kbps
Channel(s) : 6 channels
Channel positions : Front: L C R, Side: L R, LFE
Sampling rate : 48.0 KHz
Bit depth : 16 bits
Stream size : 415 MiB (6%)
Title : AC3 5.1 @ 640 kbps
Language : English

Скриншоты (превью с кликом)

Благодарности релизеру (19)

Торрент:

Статус:

Размер:

Зарегистрирован   [ 2011-09-08 13:07 ]

проверено

6.39 GB

 
 Мнение о фильме (4)





Мульт НЕ детский! Очень добротный ужастик с неплохим сюжетом и хорошим переводом, любителям ужасов однозначно смотреть. Персонажи яркие, только жаль стало главного героя - он живет в городе, где почти все как будто или дебилы или мерзавцы, а иногда - и то и другое. :)
 

Начало-середина, хорошие, под конец, что-то не очень.
В целом мультик хороший.
 

Неплохой мультик. Оставлю для коллекции.
 

Внук 7 лет смотрел два раза, просит продолжение, так понравился! 3Д хорошее