Торренты   
 
 

 

Легенды ночных стражей 3D / Legend of the Guardians: The Owls of Ga’Hoole 3D (Зак Снайдер) [2010 г., med'silver, Anamorph SideBySide]

Какой анаглиф смотреть предпочитаете? (Для анагливщиков)

Полноцвет (Color)   19%  19%  [ 55 ]
Полуцвет (Half Color)   9%  9%  [ 26 ]
Оптимизированный (Optimized)   18%  18%  [ 52 ]
Вы это о чем?   53%  53%  [ 154 ]

Всего проголосовало : 287

Рейтинг 3D:
2 голосов
8.0
Рейтинг фильма:
2 голосов
4.5
 
Вы должны быть авторизированы,
чтобы ставить оценки


[silver]Легенды ночных стражей 3D / Legend of the Guardians: The Owls of Ga’Hoole 3D
Год выпуска: 2010
Страна: США / Австралия
Жанр: фэнтези, приключения, мультфильм
Продолжительность: 01:36:47
Перевод: Дублирование (Лицензия 5.1)
Режиссер: Зак Снайдер
В ролях: Джим Стерджесс, Джоэл Эдгертон, Хьюго Уивинг, Эдриэнн ДеФариа, Ричард Роксбург, Дэвид Уэнэм, Хелен Миррен, Мириам Марголис, Сэм Нил, Джеффри Раш
Описание: Миром, в котором уже не осталось людей, правят совы… добрые… злые… как и всегда! В волшебном лесу - королевстве сов Тито - на Великом Дереве Га`Хуул, где разумные совы живут в гармонии, наступают мрачные времена. Королевство подвергается страшной опасности со стороны соседних жестоких правителей, и эта опасность грозит уничтожить привычное мироздание.
Формат 3d: Anamorph SideBySide
Порядок ракурсов: Параллельная пара
Видео : CCV1 1920x1080 23.98fps 10 000 Kbps
Аудио : Russian 6ch

MediaInfo

General
Format : Matroska
File size : 6.88 GiB
Duration : 1h 36mn
Overall bit rate : 10.2 Mbps
Encoded date : UTC 2011-01-18 13:33:35
Writing application : mkvmerge v3.3.0 ('Language') built on Mar 24 2010 14:59:24
Writing library : libebml v0.8.0 + libmatroska v0.9.0
Video
ID : 1
Format : AVC
Format/Info : Advanced Video Codec
Format profile : High@L4.0
Format settings, CABAC : Yes
Format settings, ReFrames : 4 frames
Codec ID : V_MPEG4/ISO/AVC
Duration : 1h 36mn
Bit rate : 10 000 Kbps
Width : 1 920 pixels
Height : 1 080 pixels
Display aspect ratio : 16:9
Frame rate mode : Variable
Frame rate : 23.976 fps
Color space : YUV
Chroma subsampling : 4:2:0
Bit depth : 8 bits
Scan type : Progressive
Bits/(Pixel*Frame) : 0.201
Stream size : 6.48 GiB (94%)
Writing library : x264 core 107 r1745 4785e8e
Encoding settings : cabac=1 / ref=3 / deblock=1:0:0 / analyse=0x3:0x113 / me=hex / subme=7 / psy=1 / psy_rd=1.00:0.00 / mixed_ref=1 / me_range=16 / chroma_me=1 / trellis=1 / 8x8dct=1 / cqm=0 / deadzone=21,11 / fast_pskip=1 / chroma_qp_offset=-2 / threads=6 / sliced_threads=0 / nr=0 / decimate=1 / interlaced=0 / constrained_intra=0 / bframes=3 / b_pyramid=2 / b_adapt=1 / b_bias=0 / direct=1 / weightb=1 / open_gop=0 / weightp=2 / keyint=250 / keyint_min=25 / scenecut=40 / intra_refresh=0 / rc_lookahead=40 / rc=abr / mbtree=1 / bitrate=10000 / ratetol=1.0 / qcomp=0.60 / qpmin=10 / qpmax=51 / qpstep=4 / ip_ratio=1.41 / aq=1:1.00
Audio
ID : 2
Format : AC-3
Format/Info : Audio Coding 3
Mode extension : CM (complete main)
Codec ID : A_AC3
Duration : 1h 36mn
Bit rate mode : Constant
Bit rate : 384 Kbps
Channel(s) : 6 channels
Channel positions : Front: L C R, Side: L R, LFE
Sampling rate : 48.0 KHz
Bit depth : 16 bits
Stream size : 266 MiB (4%)
Title : Russian @ DD 5.1 @ 384 kbps
Language : Russian

Скриншоты

ТОРРЕНТ ОБНОВЛЕН! ЗВУК - RUS с ЛИЦЕНЗИИ 5.1
Благодарности релизеру (1)

Торрент:

Статус:

Размер:

Зарегистрирован   [ 2011-01-18 18:52 ]

проверено

6.88 GB