Торренты   
 
 


Looney Tunes Short Fur Of Flying [2010 г., Anamorph SideBySide]

Рейтинг 3D:
Пока никто не голосовал
Рейтинг фильма:
Пока никто не голосовал
 
Вы должны быть авторизированы,
чтобы ставить оценки


Looney Tunes Short Fur Of Flying
Год выпуска: 2010
Страна: США
Жанр: мультфильм
Продолжительность: 00:03:04
Описание: Мультфильм из серии Looney Tunes про койота
Перевод не требуется
Формат 3d: Anamorph SideBySide
Порядок ракурсов: Параллельная пара

Скриншоты




Media Info

General
Format : Matroska
File size : 552 MiB
Duration : 3mn 4s
Overall bit rate : 25.1 Mbps
Writing application : Lavf51.12.1
Writing library : Lavf51.12.1
Video
ID : 1
Format : AVC
Format/Info : Advanced Video Codec
Format profile : Baseline@L1.3
Format settings, CABAC : No
Format settings, ReFrames : 1 frame
Codec ID : V_MPEG4/ISO/AVC
Duration : 3mn 4s
Bit rate : 24.4 Mbps
Width : 1 920 pixels
Height : 1 080 pixels
Display aspect ratio : 16:9
Frame rate : 23.976 fps
Color space : YUV
Chroma subsampling : 4:2:0
Bit depth : 8 bits
Scan type : Progressive
Bits/(Pixel*Frame) : 0.492
Stream size : 538 MiB (97%)
Language : English
Audio
ID : 2
Format : MPEG Audio
Format version : Version 1
Format profile : Layer 3
Mode : Joint stereo
Mode extension : MS Stereo
Codec ID : A_MPEG/L3
Codec ID/Hint : MP3
Duration : 3mn 4s
Bit rate mode : Constant
Bit rate : 128 Kbps
Channel(s) : 2 channels
Sampling rate : 44.1 KHz
Bit depth : 16 bits
Stream size : 2.82 MiB (1%)
Writing library : LAME3.97
Language : English
Благодарности релизеру (1)

Торрент:

Статус:

Размер:

Зарегистрирован   [ 2010-12-18 16:59 ]

проверено

552 MB