Торренты   
 
 


Врата в 3D / The Hole 3D (Джо Данте) [2009 г, 720p, Anamorph OverUnder]

Рейтинг 3D:
2 голосов
6.5
Рейтинг фильма:
2 голосов
7.0
 
Вы должны быть авторизированы,
чтобы ставить оценки


Врата в 3D / The Hole 3D
Год выпуска: 2009
Страна: США
Жанр: Ужасы
Продолжительность: 01:32:33
Перевод: Профессиональный (полное дублирование)
Режиссер: Джо Данте
В ролях: Крис Дж. Келли, Тери Поло, Брюс Дерн, Хейли Беннетт, Натан Гэмбл, Дик Миллер, Куинн Лорд, Джон ДеСантис, Джессика Жюст, Чорд Оуверстрит
Описание: Куда уж хуже! — именно так думает 17-ти летний Дени и его 10-ти летний брат Лукас, когда мать перевозит их из Нью-Йорка в сонный городишко Бенсонвиль. Не спеши расстраиваться Дени: твоя новая соседка Джули очень даже ничего. Мама всё больше пропадает на работе, ей некогда заниматься детьми, и братья находят себе занятие: исследовать своё новое место жительства. Дени всё больше интересуется Джулией, и всё меньше своим младшим братом.
Но всё изменится, когда они найдут зловещую бездонную дыру, закрытую люком в подвале. И открыв крышку люка, братьев пронизывает леденящий сердце холод — этот бездонный колодец является вратами в миры тьмы. И теперь, когда они выпустили зло на волю, в каждой тени оживут их потаённые страхи, и им придётся встретится лицом к лицу с ужасом, чтобы закрыть врата навсегда.
Формат 3d: Anamorph OverUnder
Порядок ракурсов: на ТВ поменять местами!
Качество: HDRip (с рипа Dag13)
Формат: MKV
Видео: AVC / 1280x1080 / 23.976fps / 7000 Kbps
Аудио: AC3 / 6ch / 448 Kbps / 48 KHz

MediaInfo

General
Complete name : O:\Downloads\The Hole 3D.anmf.mkv
Format : Matroska
File size : 4.81 GiB
Duration : 1h 32mn
Overall bit rate : 7 443 Kbps
Encoded date : UTC 2010-12-18 13:01:17
Writing application : mkvmerge v4.0.0 ('The Stars were mine') сборка от Jun 11 2010 23:24:27
Writing library : libebml v1.0.0 + libmatroska v1.0.0
Video
ID : 1
Format : AVC
Format/Info : Advanced Video Codec
Format profile : High@L4.0
Format settings, CABAC : Yes
Format settings, ReFrames : 4 frames
Codec ID : V_MPEG4/ISO/AVC
Duration : 1h 32mn
Bit rate : 7 000 Kbps
Width : 1 280 pixels
Height : 1 080 pixels
Display aspect ratio : 1.185
Frame rate : 23.976 fps
Color space : YUV
Chroma subsampling : 4:2:0
Bit depth : 8 bits
Scan type : Progressive
Bits/(Pixel*Frame) : 0.211
Stream size : 4.43 GiB (92%)
Writing library : x264 core 98 r1649 c54c47d
Encoding settings : cabac=1 / ref=3 / deblock=1:0:0 / analyse=0x3:0x113 / me=hex / subme=7 / psy=1 / psy_rd=1.00:0.00 / mixed_ref=1 / me_range=16 / chroma_me=1 / trellis=1 / 8x8dct=1 / cqm=0 / deadzone=21,11 / fast_pskip=1 / chroma_qp_offset=-2 / threads=3 / sliced_threads=0 / nr=0 / decimate=1 / interlaced=0 / constrained_intra=0 / bframes=3 / b_pyramid=2 / b_adapt=1 / b_bias=0 / direct=1 / weightb=1 / weightp=2 / keyint=250 / keyint_min=25 / scenecut=40 / intra_refresh=0 / rc_lookahead=40 / rc=2pass / mbtree=1 / bitrate=7000 / ratetol=1.0 / qcomp=0.60 / qpmin=10 / qpmax=51 / qpstep=4 / cplxblur=20.0 / qblur=0.5 / ip_ratio=1.40 / aq=1:1.00
Language : English
Audio
ID : 2
Format : AC-3
Format/Info : Audio Coding 3
Mode extension : CM (complete main)
Codec ID : A_AC3
Duration : 1h 32mn
Bit rate mode : Constant
Bit rate : 448 Kbps
Channel(s) : 6 channels
Channel positions : Front: L C R, Side: L R, LFE
Sampling rate : 48.0 KHz
Bit depth : 16 bits
Stream size : 297 MiB (6%)
Language : Russian

Скриншоты (превью с кликом)

Благодарности релизеру (0)

Торрент:

Статус:

Размер:

Зарегистрирован   [ 2010-12-18 17:53 ]

проверено

4.81 GB