Торренты   
 
 

 

Вольт 3Д / Bolt 3D (Байрон Ховард, Крис Уильямс) [2008 г, 1080p, Anamorph SideBySide]

Рейтинг 3D:
4 голосов
8.8
Рейтинг фильма:
4 голосов
9.0
 
Вы должны быть авторизированы,
чтобы ставить оценки


Вольт 3Д / Bolt 3D
Год выпуска: 2008
Страна: США
Жанр: Мультфильм, Комедия, Приключения, Семейный
Продолжительность: 01:36:22
Перевод: Профессиональный (полное дублирование)
Режиссер: Байрон Ховард, Крис Уильямс
Роли озвучивали [eng]: Джон Траволта, Майли Сайрус, Сьюзи Эссман, Марк Уолтон, Малкольм МакДауэлл, Джеймс Липтон, Грег Джерманн, Дидрих Бадер, Ник Свардсон, Жан-Поль Ману
[rus] Владимир Вдовиченков, Маша Иващенко, Анжела Белянская, Леонид Барац, Владимир Майсурадзе
Описание: Пес по кличке «Вольт» всю жизнь снимается в телевизионном сериале, где его герой — суперпёс — спасает человечество, используя свои необычайные способности. Сам Вольт свято верит в собственную неуязвимость, невероятную силу, и умение летать. Когда же судьба забрасывает его в полный опасностей Большой Город, он все еще думает, что это — лишь очередной эпизод телесериала…
Формат 3d: Anamorph SideBySide
Порядок ракурсов: Параллельная пара
Качество: HDRip (c BDRip by eugeniy)
Формат: MKV
Видео: AVC / 1920x1080 / 23.976fps / 4750 Kbps
Аудио [rus]: AC3 / 6ch / 640 Kbps / 48 KHz
Аудио [eng]: DTS / 6ch / 1510 Kbps / 48 KHz

MediaInfo

General
Complete name : O:\Downloads\Bolt 3d.1080p.anmf.mkv
Format : Matroska
File size : 4.65 GiB
Duration : 1h 36mn
Overall bit rate : 6 900 Kbps
Movie name : Вольт / Bolt (2008) by Free4Hunter
Encoded date : UTC 2010-12-19 12:51:40
Writing application : mkvmerge v4.0.0 ('The Stars were mine') сборка от Jun 11 2010 23:24:27
Writing library : libebml v1.0.0 + libmatroska v1.0.0
Cover : Yes / Yes / Yes
Video
ID : 1
Format : AVC
Format/Info : Advanced Video Codec
Format profile : High@L4.0
Format settings, CABAC : Yes
Format settings, ReFrames : 4 frames
Codec ID : V_MPEG4/ISO/AVC
Duration : 1h 36mn
Bit rate : 4 750 Kbps
Width : 1 920 pixels
Height : 1 080 pixels
Display aspect ratio : 16:9
Frame rate : 23.976 fps
Color space : YUV
Chroma subsampling : 4:2:0
Bit depth : 8 bits
Scan type : Progressive
Bits/(Pixel*Frame) : 0.096
Stream size : 3.11 GiB (67%)
Writing library : x264 core 98 r1649 c54c47d
Encoding settings : cabac=1 / ref=3 / deblock=1:0:0 / analyse=0x3:0x113 / me=hex / subme=7 / psy=1 / psy_rd=1.00:0.00 / mixed_ref=1 / me_range=16 / chroma_me=1 / trellis=1 / 8x8dct=1 / cqm=0 / deadzone=21,11 / fast_pskip=1 / chroma_qp_offset=-2 / threads=3 / sliced_threads=0 / nr=0 / decimate=1 / interlaced=0 / constrained_intra=0 / bframes=3 / b_pyramid=2 / b_adapt=1 / b_bias=0 / direct=1 / weightb=1 / weightp=2 / keyint=250 / keyint_min=25 / scenecut=40 / intra_refresh=0 / rc_lookahead=40 / rc=2pass / mbtree=1 / bitrate=4750 / ratetol=1.0 / qcomp=0.60 / qpmin=10 / qpmax=51 / qpstep=4 / cplxblur=20.0 / qblur=0.5 / ip_ratio=1.40 / aq=1:1.00
Language : English
Audio #1
ID : 2
Format : AC-3
Format/Info : Audio Coding 3
Mode extension : CM (complete main)
Codec ID : A_AC3
Duration : 1h 36mn
Bit rate mode : Constant
Bit rate : 640 Kbps
Channel(s) : 6 channels
Channel positions : Front: L C R, Side: L R, LFE
Sampling rate : 48.0 KHz
Bit depth : 16 bits
Video delay : 1s 0ms
Stream size : 441 MiB (9%)
Title : AC3-EX 5.1 640 kbps Дублированный (Blu-ray CEE)
Language : Russian
Audio #2
ID : 3
Format : DTS
Format/Info : Digital Theater Systems
Format profile : ES
Codec ID : A_DTS
Duration : 1h 36mn
Bit rate mode : Constant
Bit rate : 1 510 Kbps
Channel(s) : 6 channels
Channel positions : Front: L C R, Side: L R, LFE
Sampling rate : 48.0 KHz
Bit depth : 24 bits
Video delay : 1s 0ms
Stream size : 1.02 GiB (22%)
Title : DTS-ES 5.1 1536 kbps
Language : English

Скриншоты (превью с кликом)

Благодарности релизеру (15)

Торрент:

Статус:

Размер:

Зарегистрирован   [ 2011-09-08 13:07 ]

проверено

4.65 GB