Торренты   
 
 

 

Облачно, возможны осадки в виде фрикаделек 3Д / Cloudy with a Chance of Meatballs 3D (Фил Лорд, Крис Миллер) [2009 г, 1080p, Anamorph SideBySide]

Рейтинг 3D:
79 голосов
8.6
Рейтинг фильма:
74 голосов
8.4
 
Вы должны быть авторизированы,
чтобы ставить оценки


Облачно, возможны осадки в виде фрикаделек 3Д / Cloudy with a Chance of Meatballs 3D
Год выпуска: 2009
Страна: США
Жанр: мультфильм, комедия, семейный
Продолжительность: 01:29:53
Перевод: Профессиональный (полное дублирование)
Режиссер: Фил Лорд, Крис Миллер
Роли озвучивали : [eng] Билл Хэйдер, Анна Фэрис, Джеймс Каан, Энди Сэмберг, Брюс Кэмпбелл, Мистер Ти, Бобби Дж. Томпсон, Бенджамин Брэтт, Нил Патрик Харрис, Эл Рокер.
[rus] Александр Пушной, Ксения Бржезовская, Михаил Шац, Иван Чабан, Татьяна Лазарева.
Описание: Главный герой мультфильма — странный ученый Флинт Локвуд, который всегда хотел изобрести что-то такое, что сделает его родной городок счастливым. И вот, у него получилось! Еды теперь хватает всем, и она просто падает с неба, создавая новые пейзажи вокруг: можно любоваться закатом с живописных холмов из фруктового желе. Но иногда вкусные осадки в виде фрикаделек могут превратиться в настоящий торнадо из аппетитных, но уже опасных спагетти! Гениальному ученому и его друзьям предстоит исправить положение дел в сытом городке.
Формат 3d: Anamorph SideBySide
Порядок ракурсов: Параллельная пара
Качество: HDRip (c BDRip by eugeniy)
Формат: MKV
Видео: AVC / 1920x1080 / 23.976fps / 6200 Kbps
Аудио [rus]: AC3 / 6ch / 640 Kbps / 48 KHz
Аудио [eng]: AC3 / 6ch / 640 Kbps / 48 KHz

MediaInfo

General
Complete name : O:\Downloads\Cloudy with a Chance of Meatballs in 3D.anmf.mkv
Format : Matroska
File size : 4.70 GiB
Duration : 1h 29mn
Overall bit rate : 7 479 Kbps
Encoded date : UTC 2010-12-16 11:26:01
Writing application : mkvmerge v4.0.0 ('The Stars were mine') сборка от Jun 11 2010 23:24:27
Writing library : libebml v1.0.0 + libmatroska v1.0.0
Video
ID : 1
Format : AVC
Format/Info : Advanced Video Codec
Format profile : High@L4.0
Format settings, CABAC : Yes
Format settings, ReFrames : 4 frames
Codec ID : V_MPEG4/ISO/AVC
Duration : 1h 29mn
Bit rate : 6 200 Kbps
Width : 1 920 pixels
Height : 1 080 pixels
Display aspect ratio : 16:9
Frame rate : 23.976 fps
Color space : YUV
Chroma subsampling : 4:2:0
Bit depth : 8 bits
Scan type : Progressive
Bits/(Pixel*Frame) : 0.125
Stream size : 3.80 GiB (81%)
Writing library : x264 core 98 r1649 c54c47d
Encoding settings : cabac=1 / ref=3 / deblock=1:0:0 / analyse=0x3:0x113 / me=hex / subme=7 / psy=1 / psy_rd=1.00:0.00 / mixed_ref=1 / me_range=16 / chroma_me=1 / trellis=1 / 8x8dct=1 / cqm=0 / deadzone=21,11 / fast_pskip=1 / chroma_qp_offset=-2 / threads=3 / sliced_threads=0 / nr=0 / decimate=1 / interlaced=0 / constrained_intra=0 / bframes=3 / b_pyramid=2 / b_adapt=1 / b_bias=0 / direct=1 / weightb=1 / weightp=2 / keyint=250 / keyint_min=25 / scenecut=40 / intra_refresh=0 / rc_lookahead=40 / rc=2pass / mbtree=1 / bitrate=6200 / ratetol=1.0 / qcomp=0.60 / qpmin=10 / qpmax=51 / qpstep=4 / cplxblur=20.0 / qblur=0.5 / ip_ratio=1.40 / aq=1:1.00
Language : English
Audio #1
ID : 2
Format : AC-3
Format/Info : Audio Coding 3
Mode extension : CM (complete main)
Codec ID : A_AC3
Duration : 1h 29mn
Bit rate mode : Constant
Bit rate : 640 Kbps
Channel(s) : 6 channels
Channel positions : Front: L C R, Side: L R, LFE
Sampling rate : 48.0 KHz
Bit depth : 16 bits
Stream size : 411 MiB (9%)
Language : Russian
Audio #2
ID : 3
Format : AC-3
Format/Info : Audio Coding 3
Mode extension : CM (complete main)
Codec ID : A_AC3
Duration : 1h 29mn
Bit rate mode : Constant
Bit rate : 640 Kbps
Channel(s) : 6 channels
Channel positions : Front: L C R, Side: L R, LFE
Sampling rate : 48.0 KHz
Bit depth : 16 bits
Stream size : 411 MiB (9%)
Language : English

Скриншоты (превью с кликом)

Остальные раздачи этого фильма (6)
Благодарности релизеру (19)

Торрент:

Статус:

Размер:

Зарегистрирован   [ 2010-12-20 21:59 ]

проверено

4.7 GB

 
 Мнение о фильме (17)





мультфильм супер всем смотреть скора вторая часть будет
 

Хороший мультфильм...
 

Прикольный мультик!
 

Понравилось, спасибо!
 

Отличный мультфильм,смотреть всем,3д в норме
 

Мультфильм отличный!
 

мульт - супер! качну в коллекцию...
 

Отлично! когда вторая часть?
 

Отличный мульт, очень понравился. Прямо как триллер в мультяшном варианте) Интересно и детям, и взрослым!
 

Классный мультик для всей семьи! Понравился всем. 3d в норме. Ждем продолжения.
 

Дети попросили скачать, им очень нравится. 3D тоже неплохое
 

большое спасибо за хороший мультик
 

Дайте скорости ребята))
 

Уверен что детям понравится. Но лично мне показался как-то не очень... Может быть из-за того, что... или я был не "в детском настроении", или я действительно уже слегка "перерос" такие мультики. (хотя, правельнее сказать - "недорос", всего-то шестой год на пенсии). Судя по рекламе вышло продолжение - "Облачно-2...", обязательно посмотрю... Может быть и изменю своё мнение... В любом случае всем раздающим - большое спасибо.
 

Отличный мульт, ребенку нравится, 3D на высоте.
 

Понравилось, спасибо!
 

3D хорошее но вылетов нет, мультик будет интересен для детей!