Торренты   
 
 

 

Риф 3Д / The Reef 3D [2010 г, 1080i, Anamorph SideBySide]

Рейтинг 3D:
1 голосов
9.0
Рейтинг фильма:
Пока никто не голосовал
 
Вы должны быть авторизированы,
чтобы ставить оценки


Риф 3Д / The Reef 3D
Год выпуска: 2010
Жанр: Документальный, видовой
Продолжительность: 00:27:00
Перевод: Отсутствует
Описание: Просто красивый научно-популярный фильм о рифе в Белизе.
Формат 3d: Anamorph SideBySide
Порядок ракурсов: Параллельная пара
Качество: HDTVRip (by gmouse)
Формат: MKV
Видео: AVC / 1920x1080i / 23.976fps / 5404 Kbps
Аудио [eng]: AC3 / 2 ch / 384 Kbps / 48 KHz

MediaInfo

General
Complete name : O:\Downloads\The Reef 3D.1080p.anmf.mkv
Format : Matroska
File size : 1.09 GiB
Duration : 27mn 0s
Overall bit rate : 5 786 Kbps
Encoded date : UTC 2010-12-11 07:26:00
Writing application : mkvmerge v4.3.0 ('Escape from the Island') built on Sep 5 2010 10:30:51
Writing library : libebml v1.0.0 + libmatroska v1.0.0
Video
ID : 1
Format : AVC
Format/Info : Advanced Video Codec
Format profile : High@L4.0
Format settings, CABAC : Yes
Format settings, ReFrames : 4 frames
Codec ID : V_MPEG4/ISO/AVC
Duration : 27mn 0s
Bit rate : 5 404 Kbps
Width : 1 920 pixels
Height : 1 080 pixels
Display aspect ratio : 16:9
Frame rate : 25.000 fps
Color space : YUV
Chroma subsampling : 4:2:0
Bit depth : 8 bits
Scan type : Progressive
Bits/(Pixel*Frame) : 0.104
Stream size : 1 021 MiB (91%)
Writing library : x264 core 105 r1724 b02df7b
Encoding settings : cabac=1 / ref=3 / deblock=1:0:0 / analyse=0x3:0x113 / me=hex / subme=7 / psy=1 / psy_rd=1.00:0.00 / mixed_ref=1 / me_range=16 / chroma_me=1 / trellis=1 / 8x8dct=1 / cqm=0 / deadzone=21,11 / fast_pskip=1 / chroma_qp_offset=-2 / threads=3 / sliced_threads=0 / nr=0 / decimate=1 / interlaced=0 / constrained_intra=0 / bframes=3 / b_pyramid=2 / b_adapt=1 / b_bias=0 / direct=1 / weightb=1 / open_gop=0 / weightp=2 / keyint=250 / keyint_min=25 / scenecut=40 / intra_refresh=0 / rc_lookahead=40 / rc=2pass / mbtree=1 / bitrate=5404 / ratetol=1.0 / qcomp=0.60 / qpmin=10 / qpmax=51 / qpstep=4 / cplxblur=20.0 / qblur=0.5 / ip_ratio=1.40 / aq=1:1.00
Audio
ID : 2
Format : AC-3
Format/Info : Audio Coding 3
Mode extension : CM (complete main)
Codec ID : A_AC3
Duration : 27mn 0s
Bit rate mode : Constant
Bit rate : 384 Kbps
Channel(s) : 2 channels
Channel positions : Front: L R
Sampling rate : 48.0 KHz
Bit depth : 16 bits
Stream size : 74.2 MiB (7%)
Language : English

Скриншоты (превью с кликом)

Благодарности релизеру (2)

Торрент:

Статус:

Размер:

Зарегистрирован   [ 2010-12-21 18:24 ]

проверено

1.09 GB