Торренты   
 
 

 

Майкл Джексон: Вот и всё 3D / Michael Jackson: This Is It 3D (клипы) [2009 г., Anamorph SideBySide]

Рейтинг 3D:
11 голосов
7.8
Рейтинг фильма:
11 голосов
8.1
 
Вы должны быть авторизированы,
чтобы ставить оценки


Майкл Джексон: Вот и всё 3D / Michael Jackson: This Is It 3D (клипы)
Год выпуска: 2009
Страна: США
Жанр: документальный, музыка
Описание:
Клипы в 3D:
Thriller Vignette
Smooth Criminal Vignette
Earth Song Vignette
Дополнительно:
В клип Earth Song Vignette вставил дополнительную дорожку с песней, оригинальная дорожка сохранена.
Вроде бы это все, что было в 3D в этом фильме.
Формат 3d: Anamorph SideBySide
Порядок ракурсов: Параллельная пара

MediaInfo Thriller Vignette

General
Complete name : E:\Michael Jackson\This.Is.It.Thriller.1080p.half.SBS.z-man.mkv
Format : Matroska
File size : 502 MiB
Duration : 3mn 51s
Overall bit rate : 18.2 Mbps
Encoded date : UTC 2010-10-29 05:00:07
Writing application : mkvmerge v4.0.0 ('The Stars were mine') gebaut am Jun 6 2010 16:18:42
Writing library : libebml v1.0.0 + libmatroska v1.0.0
Video
ID : 1
Format : AVC
Format/Info : Advanced Video Codec
Format profile : High@L4.1
Format settings, CABAC : Yes
Format settings, ReFrames : 4 frames
Codec ID : V_MPEG4/ISO/AVC
Duration : 3mn 51s
Bit rate : 17.2 Mbps
Width : 1 920 pixels
Height : 1 080 pixels
Display aspect ratio : 16:9
Frame rate : 23.976 fps
Color space : YUV
Chroma subsampling : 4:2:0
Bit depth : 8 bits
Scan type : Progressive
Bits/(Pixel*Frame) : 0.346
Stream size : 475 MiB (94%)
Title : made by z-man
Writing library : x264 core 107 r1745 4785e8e
Encoding settings : cabac=1 / ref=4 / deblock=1:-1:-1 / analyse=0x3:0x113 / me=umh / subme=7 / psy=1 / psy_rd=1.00:0.15 / mixed_ref=1 / me_range=16 / chroma_me=1 / trellis=1 / 8x8dct=1 / cqm=0 / deadzone=21,11 / fast_pskip=0 / chroma_qp_offset=-3 / threads=12 / sliced_threads=0 / nr=0 / decimate=1 / interlaced=0 / constrained_intra=0 / bframes=3 / b_pyramid=2 / b_adapt=1 / b_bias=0 / direct=3 / weightb=1 / open_gop=0 / weightp=2 / keyint=250 / keyint_min=23 / scenecut=40 / intra_refresh=0 / rc_lookahead=40 / rc=crf / mbtree=1 / crf=18.0 / qcomp=0.60 / qpmin=10 / qpmax=51 / qpstep=4 / ip_ratio=1.40 / aq=1:1.00
Audio
ID : 2
Format : AC-3
Format/Info : Audio Coding 3
Mode extension : CM (complete main)
Codec ID : A_AC3
Duration : 3mn 51s
Bit rate mode : Constant
Bit rate : 640 Kbps
Channel(s) : 6 channels
Channel positions : Front: L C R, Side: L R, LFE
Sampling rate : 48.0 KHz
Bit depth : 16 bits
Stream size : 17.7 MiB (4%)
Language : English

MediaInfo Smooth Criminal Vignette

General
Complete name : E:\Michael Jackson\This.Is.It.Smooth.Criminal.1080p.half.SBS.z-man.mkv
Format : Matroska
File size : 366 MiB
Duration : 3mn 58s
Overall bit rate : 12.9 Mbps
Encoded date : UTC 2010-10-29 05:00:49
Writing application : mkvmerge v4.0.0 ('The Stars were mine') gebaut am Jun 6 2010 16:18:42
Writing library : libebml v1.0.0 + libmatroska v1.0.0
Video
ID : 1
Format : AVC
Format/Info : Advanced Video Codec
Format profile : High@L4.1
Format settings, CABAC : Yes
Format settings, ReFrames : 4 frames
Codec ID : V_MPEG4/ISO/AVC
Duration : 3mn 58s
Bit rate : 12.0 Mbps
Width : 1 920 pixels
Height : 1 080 pixels
Display aspect ratio : 16:9
Frame rate : 23.976 fps
Color space : YUV
Chroma subsampling : 4:2:0
Bit depth : 8 bits
Scan type : Progressive
Bits/(Pixel*Frame) : 0.241
Stream size : 340 MiB (93%)
Title : made by z-man
Writing library : x264 core 107 r1745 4785e8e
Encoding settings : cabac=1 / ref=4 / deblock=1:-1:-1 / analyse=0x3:0x113 / me=umh / subme=7 / psy=1 / psy_rd=1.00:0.15 / mixed_ref=1 / me_range=16 / chroma_me=1 / trellis=1 / 8x8dct=1 / cqm=0 / deadzone=21,11 / fast_pskip=0 / chroma_qp_offset=-3 / threads=12 / sliced_threads=0 / nr=0 / decimate=1 / interlaced=0 / constrained_intra=0 / bframes=3 / b_pyramid=2 / b_adapt=1 / b_bias=0 / direct=3 / weightb=1 / open_gop=0 / weightp=2 / keyint=250 / keyint_min=23 / scenecut=40 / intra_refresh=0 / rc_lookahead=40 / rc=crf / mbtree=1 / crf=18.0 / qcomp=0.60 / qpmin=10 / qpmax=51 / qpstep=4 / ip_ratio=1.40 / aq=1:1.00
Audio
ID : 2
Format : AC-3
Format/Info : Audio Coding 3
Mode extension : CM (complete main)
Codec ID : A_AC3
Duration : 3mn 58s
Bit rate mode : Constant
Bit rate : 640 Kbps
Channel(s) : 6 channels
Channel positions : Front: L C R, Side: L R, LFE
Sampling rate : 48.0 KHz
Bit depth : 16 bits
Stream size : 18.2 MiB (5%)
Language : English

MediaInfo Earth Song Vignette

General
Complete name : E:\Michael Jackson\This.Is.It.Earth.Song.1080p.half.SBS.z-man.mkv
Format : Matroska
File size : 895 MiB
Duration : 5mn 41s
Overall bit rate : 22.0 Mbps
Encoded date : UTC 2010-12-27 14:41:09
Writing application : mkvmerge v3.3.0 ('Language') built on Mar 24 2010 14:59:24
Writing library : libebml v0.8.0 + libmatroska v0.9.0
Video
ID : 1
Format : AVC
Format/Info : Advanced Video Codec
Format profile : High@L4.1
Format settings, CABAC : Yes
Format settings, ReFrames : 4 frames
Codec ID : V_MPEG4/ISO/AVC
Duration : 5mn 41s
Bit rate : 20.8 Mbps
Width : 1 920 pixels
Height : 1 080 pixels
Display aspect ratio : 16:9
Frame rate : 23.976 fps
Color space : YUV
Chroma subsampling : 4:2:0
Bit depth : 8 bits
Scan type : Progressive
Bits/(Pixel*Frame) : 0.417
Stream size : 844 MiB (94%)
Title : made by z-man
Writing library : x264 core 107 r1745 4785e8e
Encoding settings : cabac=1 / ref=4 / deblock=1:-1:-1 / analyse=0x3:0x113 / me=umh / subme=7 / psy=1 / psy_rd=1.00:0.15 / mixed_ref=1 / me_range=16 / chroma_me=1 / trellis=1 / 8x8dct=1 / cqm=0 / deadzone=21,11 / fast_pskip=0 / chroma_qp_offset=-3 / threads=12 / sliced_threads=0 / nr=0 / decimate=1 / interlaced=0 / constrained_intra=0 / bframes=3 / b_pyramid=2 / b_adapt=1 / b_bias=0 / direct=3 / weightb=1 / open_gop=0 / weightp=2 / keyint=250 / keyint_min=23 / scenecut=40 / intra_refresh=0 / rc_lookahead=40 / rc=crf / mbtree=1 / crf=18.0 / qcomp=0.60 / qpmin=10 / qpmax=51 / qpstep=4 / ip_ratio=1.40 / aq=1:1.00
Language : Russian
Audio #1
ID : 2
Format : AC-3
Format/Info : Audio Coding 3
Mode extension : CM (complete main)
Codec ID : A_AC3
Duration : 5mn 41s
Bit rate mode : Constant
Bit rate : 192 Kbps
Channel(s) : 2 channels
Channel positions : Front: L R
Sampling rate : 48.0 KHz
Bit depth : 16 bits
Stream size : 7.81 MiB (1%)
Language : Russian
Audio #2
ID : 3
Format : AC-3
Format/Info : Audio Coding 3
Mode extension : CM (complete main)
Codec ID : A_AC3
Duration : 5mn 41s
Bit rate mode : Constant
Bit rate : 640 Kbps
Channel(s) : 6 channels
Channel positions : Front: L C R, Side: L R, LFE
Sampling rate : 48.0 KHz
Bit depth : 16 bits
Stream size : 26.0 MiB (3%)
Language : English

Скриншоты






Обновил звуковую дорожку с песней в клипе "Earth Song Vignette", теперь она в формате АС-3. Просьба проверить на 3D телевизорах и сообщить, проигрывается она или нет (если на 3ДТВ она будет проигрываться нормально благодарите за это askona - это он мою дорожку конвертнул). Остальные клипы без изменений.
Благодарности релизеру (14)

Торрент:

Статус:

Размер:

Зарегистрирован   [ 2011-01-13 23:02 ]

проверено

1.73 GB

 
 Мнение о фильме (3)





Если честно я ожидал большего,не насладился ни самими роликами ,ни тем более 3д
 

Earth Song афигенный клип как,в принципе, и сама песня. Однозачно в коллекцию
 

Вот это настоящее 3d !!!