Торренты   
 
 


Дом-монстр 3Д / Monster House 3D (Гил Кинан) [2006 г, 1080p, OverUnder]

Рейтинг 3D:
3 голосов
6.7
Рейтинг фильма:
3 голосов
9.0
 
Вы должны быть авторизированы,
чтобы ставить оценки


Дом-монстр 3Д / Monster House 3D
Год выпуска: 2006
Страна: США
Жанр: Мультфильм, Ужасы, Комедия, Детектив
Продолжительность: 01:30:38
Перевод: Профессиональный (полное дублирование)
Режиссер: Гил Кинан
Роли озвучивали: Райан Ньюман, Стив Бушеми, Митчел Муссо, Кэтрин О’Хара, Фред Уиллард, Сэм Лернер, Вуди Шульц, Йен МакКоннел, Мэгги Джилленхол, Джейсон Ли, Кевин Джеймс, Кэтлин Тёрнер.
Описание: Хорошо быть мальчишкой. Каждый день, как вся жизнь! Столько всего вокруг: девчонки, мороженое, драки, учебники, футбол. Насыщенный день, короче, получается. А вот если ты однажды обнаружил, что дом, который стоит по соседству с домом твоей семьи — вовсе не дом… А попросту говоря — монстр. Чудовище, в общем. Такие дела.
Ну вот, история эта про то, как три приятеля — ДиДжей, Чёдер и Дженни — обнаружили, что дом, находящийся неподалеку, самый настоящий монстр. Только никто им не верил. Мало ли, чего навыдумывают дети… Только зря они так. Ребята их предупреждали…
Формат 3d: OverUnder
Качество: BDRip by eugeniy
Формат: MKV
Видео: AVC / 1920x1600 / 23.976fps / 13,1 Mbps
Аудио [rus]: AC3 / 6ch / 448 Kbps / 48 KHz
Аудио [eng]: AC3 / 6ch / 640 Kbps / 48 KHz

MediaInfo

General
Complete name : O:\Downloads\Monster.House.3D.1080p.mkv
Format : Matroska
File size : 9.17 GiB
Duration : 1h 30mn
Overall bit rate : 14.5 Mbps
Encoded date : UTC 2010-09-15 08:12:23
Writing application : mkvmerge v2.9.7 ('Tenderness') built on Jul 1 2009 18:43:35
Writing library : libebml v0.7.7 + libmatroska v0.8.1
Video
ID : 1
Format : AVC
Format/Info : Advanced Video Codec
Format profile : High@L5.0
Format settings, CABAC : Yes
Format settings, ReFrames : 4 frames
Format settings, GOP : M=7, N=8
Codec ID : V_MPEG4/ISO/AVC
Duration : 1h 30mn
Bit rate : 13.1 Mbps
Width : 1 920 pixels
Height : 1 600 pixels
Display aspect ratio : 1.200
Frame rate : 23.976 fps
Original frame rate : 25.000 fps
Color space : YUV
Chroma subsampling : 4:2:0
Bit depth : 8 bits
Scan type : Progressive
Bits/(Pixel*Frame) : 0.178
Stream size : 8.30 GiB (91%)
Writing library : x264 core 104 r1713 c276662
Encoding settings : cabac=1 / ref=4 / deblock=1:-1:-1 / analyse=0x3:0x113 / me=umh / subme=7 / psy=1 / psy_rd=1.00:0.15 / mixed_ref=1 / me_range=16 / chroma_me=1 / trellis=2 / 8x8dct=1 / cqm=0 / deadzone=21,11 / fast_pskip=1 / chroma_qp_offset=-3 / threads=6 / sliced_threads=0 / nr=0 / decimate=1 / interlaced=0 / constrained_intra=0 / bframes=6 / b_pyramid=0 / b_adapt=2 / b_bias=0 / direct=3 / weightb=1 / open_gop=0 / weightp=2 / keyint=250 / keyint_min=25 / scenecut=40 / intra_refresh=0 / rc_lookahead=40 / rc=crf / mbtree=1 / crf=18.0 / qcomp=0.60 / qpmin=10 / qpmax=51 / qpstep=4 / ip_ratio=1.40 / aq=1:1.00
Language : English
Audio #1
ID : 2
Format : AC-3
Format/Info : Audio Coding 3
Mode extension : CM (complete main)
Codec ID : A_AC3
Duration : 1h 30mn
Bit rate mode : Constant
Bit rate : 448 Kbps
Channel(s) : 6 channels
Channel positions : Front: L C R, Side: L R, LFE
Sampling rate : 48.0 KHz
Bit depth : 16 bits
Stream size : 290 MiB (3%)
Title : AC3 5.1 @ 448 kbps - Дублированный
Language : Russian
Audio #2
ID : 3
Format : AC-3
Format/Info : Audio Coding 3
Mode extension : CM (complete main)
Codec ID : A_AC3
Duration : 1h 30mn
Bit rate mode : Constant
Bit rate : 640 Kbps
Channel(s) : 6 channels
Channel positions : Front: L C R, Side: L R, LFE
Sampling rate : 48.0 KHz
Bit depth : 16 bits
Stream size : 415 MiB (4%)
Title : AC3 5.1 @ 640 kbps
Language : English

Скриншоты (превью с кликом)

Благодарности релизеру (4)

Торрент:

Статус:

Размер:

Зарегистрирован   [ 2010-12-21 21:21 ]

проверено

9.17 GB