Торренты   
 
 

 

IMAX. Галапагосы 3D / Galapagos: The Enchanted Voyage 3D (Дэвид Кларк, Эл Гиддингс) [1999 г, 1080p, Anamorph OverUnder]

Рейтинг 3D:
1 голосов
9.0
Рейтинг фильма:
1 голосов
9.0
 
Вы должны быть авторизированы,
чтобы ставить оценки


IMAX. Галапагосы 3D / Galapagos: The Enchanted Voyage 3D
Год выпуска: 1999
Страна: США
Жанр: Документальный
Продолжительность: 00:38:50
Перевод: Любительский (одноголосый)
Режиссер: Дэвид Кларк, Эл Гиддингс
В ролях: Кеннет Брэна, Кэрол Болдуин, John E. McCosker, Дэвид Поусон, Матиас Эспиноза, Дон Либераторе
Описание: Есть на Земле место, где обитают удивительные существа, способные поразить даже бывалых путешественников и ученых. Это Галапагосские острова — один из самых необычных и красивых архипелагов на Земле. Когда-то давно они служили убежищем для пиратских судов, а затем стали национальным природным парком, где животные до сих пор не боятся человека.
Формат 3d: Anamorph OverUnder
Качество: HDRip (с BDRip by eugeniy)
Формат: MKV
Видео: AVC / 1920x1080 / 23.976fps / 12,5 Mbps
Аудио [rus]: AC3 / 2 ch / 192 Kbps / 48 KHz
Аудио [eng]: AC3 / 6 ch / 448 Kbps / 48 KHz

MediaInfo

General
Complete name : O:\Downloads\Galapagos 3d.1080p.anmf.mkv
Format : Matroska
File size : 3.56 GiB
Duration : 38mn 50s
Overall bit rate : 13.1 Mbps
Encoded date : UTC 2010-12-22 11:53:38
Writing application : mkvmerge v4.0.0 ('The Stars were mine') сборка от Jun 11 2010 23:24:27
Writing library : libebml v1.0.0 + libmatroska v1.0.0
Video
ID : 1
Format : AVC
Format/Info : Advanced Video Codec
Format profile : High@L4.0
Format settings, CABAC : Yes
Format settings, ReFrames : 4 frames
Codec ID : V_MPEG4/ISO/AVC
Duration : 38mn 50s
Bit rate : 12.5 Mbps
Width : 1 920 pixels
Height : 1 080 pixels
Display aspect ratio : 16:9
Frame rate : 23.976 fps
Color space : YUV
Chroma subsampling : 4:2:0
Bit depth : 8 bits
Scan type : Progressive
Bits/(Pixel*Frame) : 0.251
Stream size : 3.32 GiB (93%)
Writing library : x264 core 98 r1649 c54c47d
Encoding settings : cabac=1 / ref=3 / deblock=1:0:0 / analyse=0x3:0x113 / me=hex / subme=7 / psy=1 / psy_rd=1.00:0.00 / mixed_ref=1 / me_range=16 / chroma_me=1 / trellis=1 / 8x8dct=1 / cqm=0 / deadzone=21,11 / fast_pskip=1 / chroma_qp_offset=-2 / threads=3 / sliced_threads=0 / nr=0 / decimate=1 / interlaced=0 / constrained_intra=0 / bframes=3 / b_pyramid=2 / b_adapt=1 / b_bias=0 / direct=1 / weightb=1 / weightp=2 / keyint=250 / keyint_min=25 / scenecut=40 / intra_refresh=0 / rc_lookahead=40 / rc=2pass / mbtree=1 / bitrate=12500 / ratetol=1.0 / qcomp=0.60 / qpmin=10 / qpmax=51 / qpstep=4 / cplxblur=20.0 / qblur=0.5 / ip_ratio=1.40 / aq=1:1.00
Language : English
Audio #1
ID : 2
Format : AC-3
Format/Info : Audio Coding 3
Mode extension : CM (complete main)
Codec ID : A_AC3
Duration : 38mn 50s
Bit rate mode : Constant
Bit rate : 192 Kbps
Channel(s) : 2 channels
Channel positions : Front: L R
Sampling rate : 48.0 KHz
Bit depth : 16 bits
Stream size : 53.3 MiB (1%)
Language : Russian
Audio #2
ID : 3
Format : AC-3
Format/Info : Audio Coding 3
Mode extension : CM (complete main)
Codec ID : A_AC3
Duration : 38mn 50s
Bit rate mode : Constant
Bit rate : 448 Kbps
Channel(s) : 6 channels
Channel positions : Front: L C R, Side: L R, LFE
Sampling rate : 48.0 KHz
Bit depth : 16 bits
Stream size : 124 MiB (3%)
Language : English

Скриншоты (превью с кликом)

Остальные раздачи этого фильма (2)
Благодарности релизеру (7)

Торрент:

Статус:

Размер:

Зарегистрирован   [ 2011-10-31 08:52 ]

проверено

3.56 GB