Торренты   
 
 


Шаркбой и Девочка лава 3D / Sharkboy And Lavagirl (Роберт Родригес) [2005 г., Anaglyph, red'cyan]

Рейтинг 3D:
Пока никто не голосовал
Рейтинг фильма:
Пока никто не голосовал
 
Вы должны быть авторизированы,
чтобы ставить оценки


Шаркбой и Девочка лава 3D / Sharkboy And Lavagirl
Год выпуска: 2005
Страна: США
Жанр: Приключения
Продолжительность: 01:32:23
Перевод: Профессиональный (двухголосый)
Режиссер: Роберт Родригес
Описание: Десятилетний Макс - изгой в своею школе. За то, что он часто витает в облаках, создавая в своем воображении поразительные похождения придуманных им детей-супергероев Шаркбоя и Лавы, одноклассники считают его никчемным мечтателем. Жизнь Макса - сплошная скука. Но все меняется, когда приходят они... Нет, не чокнутые верблюды. А созданные воображением Макса дети-супергерои Шаркбой и Лава! Пусть одноклассники считают его никчемным мечтателем, он верит, что мир фантазии, в котором живут эти герои, так же реален, как наш. И однажды случается чудо...
Формат 3d: Anaglyph
Цвета очков:

Скриншоты




mi

Медиаинфо- General
Format : AVI
Format/Info : Audio Video Interleave
File size : 700 MiB
Duration : 1h 32mn
Overall bit rate : 1 059 Kbps
Writing application : VirtualDubMod 1.5.10.2 (build 2540/release)
Writing library : VirtualDubMod build 2540/release
Video
ID : 0
Format : MPEG-4 Visual
Format profile : Advanced Simple@L5
Format settings, BVOP : Yes
Format settings, QPel : No
Format settings, GMC : No warppoints
Format settings, Matrix : Default (MPEG)
Codec ID : XVID
Codec ID/Hint : XviD
Duration : 1h 32mn
Bit rate : 923 Kbps
Width : 500 pixels
Height : 272 pixels
Display aspect ratio : 16:9
Frame rate : 23.976 fps
Original frame rate : 25.000 fps
Color space : YUV
Chroma subsampling : 4:2:0
Bit depth : 8 bits
Scan type : Progressive
Bits/(Pixel*Frame) : 0.283
Stream size : 610 MiB (87%)
Writing library : XviD 0039 build=2005.09.16 (UTC 2005-09-16)
Audio
ID : 1
Format : MPEG Audio
Format version : Version 1
Format profile : Layer 3
Mode : Joint stereo
Mode extension : MS Stereo
Codec ID : 55
Codec ID/Hint : MP3
Duration : 1h 31mn
Bit rate mode : Constant
Bit rate : 128 Kbps
Channel(s) : 2 channels
Sampling rate : 48.0 KHz
Video delay : 5ms
Stream size : 84.0 MiB (12%)
Alignment : Split accross interleaves
Interleave, duration : 42 ms (1.01 video frame)
Interleave, preload duration : 500 ms
Благодарности релизеру (0)

Торрент:

Статус:

Размер:

Зарегистрирован   [ 2011-12-17 01:52 ]

проверено

700 MB