Торренты   
 
 

 

Пираньи 3Д / Piranha 3D (Александр Ажа) [2010 г.,Anamorph, SideBySide]

Рейтинг 3D:
3 голосов
9.0
Рейтинг фильма:
3 голосов
9.0
 
Вы должны быть авторизированы,
чтобы ставить оценки


Пираньи 3Д / Piranha 3D
Год выпуска: 2010
Страна: США
Жанр: ужасы, боевик, триллер
Продолжительность: 01:28:21
Перевод: Профессиональный (полное дублирование)
Режиссер: Александр Ажа
В ролях: Ричард Дрейфусс, Винг Рэймс, Элизабет Шу, Кристофер Ллойд, Элай Рот, Джерри О`Коннелл, Стивен Р. МакКуин, Джессика Зор, Келли Брук, Райли Стил
Описание: 20 тысяч подростков курортного городка у озера Виктория готовятся к празднованию ежегодного праздника начала лета. Но ночное землетрясение высвобождает сотни тысяч доисторических пираний прямо накануне торжества. Очаровательная шериф, ее подчиненные-полицейские и доктор Горден Рэйбэнкс решают сделать все, чтобы веселый праздник молодежи в озере не превратился в кровавое пиршество. Но пираньи уже знают ответ, кто победит: молодость или многовековая жажда крови…
Доп. информация: (С) тырено с rutracker.org
С Новым годом!!!

Аудио 1: Russian : Dolby AC3 48000Hz 5.1ch 448 kbps
Аудио 2: English : DTS 48000Hz 5.1ch 1510kbps
Формат 3d: Half SideBySide
Порядок ракурсов: Горизонтальная анаморфная стереопара
Видео: MPEG4 Video (H264) 1920x1080 23.98fps 12.9 Mbps

Скриншоты



me

Format : Matroska
File size : 9.37 GiB
Duration : 1h 28mn
Overall bit rate : 15.2 Mbps
Encoded date : UTC 2010-12-26 02:57:26
Writing application : mkvmerge v2.9.7 ('Tenderness') built on Jul 1 2009 18:43:35
Writing library : libebml v0.7.7 + libmatroska v0.8.1
Video
ID : 1
Format : AVC
Format/Info : Advanced Video Codec
Format profile : High@L4.1
Format settings, CABAC : Yes
Format settings, ReFrames : 4 frames
Muxing mode : Container profile=Unknown@4.1
Codec ID : V_MPEG4/ISO/AVC
Duration : 1h 28mn
Bit rate : 12.9 Mbps
Width : 1 920 pixels
Height : 1 080 pixels
Display aspect ratio : 16:9
Frame rate : 23.976 fps
Color space : YUV
Chroma subsampling : 4:2:0
Bit depth : 8 bits
Scan type : Progressive
Bits/(Pixel*Frame) : 0.260
Stream size : 7.98 GiB (85%)
Writing library : x264 core 112 r1834 a51816a
Encoding settings : cabac=1 / ref=4 / deblock=1:-1:-1 / analyse=0x3:0x113 / me=umh / subme=7 / psy=1 / psy_rd=1.00:0.15 / mixed_ref=1 / me_range=16 / chroma_me=1 / trellis=1 / 8x8dct=1 / cqm=0 / deadzone=21,11 / fast_pskip=1 / chroma_qp_offset=-3 / threads=18 / sliced_threads=0 / nr=0 / decimate=1 / interlaced=0 / constrained_intra=0 / bframes=3 / b_pyramid=2 / b_adapt=1 / b_bias=0 / direct=3 / weightb=1 / open_gop=0 / weightp=2 / keyint=250 / keyint_min=23 / scenecut=40 / intra_refresh=0 / rc_lookahead=40 / rc=crf / mbtree=1 / crf=18.0 / qcomp=0.60 / qpmin=10 / qpmax=51 / qpstep=4 / ip_ratio=1.40 / aq=1:1.00
Language : English
Audio #1
ID : 2
Format : AC-3
Format/Info : Audio Coding 3
Mode extension : CM (complete main)
Codec ID : A_AC3
Duration : 1h 28mn
Bit rate mode : Constant
Bit rate : 448 Kbps
Channel(s) : 6 channels
Channel positions : Front: L C R, Side: L R, LFE
Sampling rate : 48.0 KHz
Bit depth : 16 bits
Stream size : 284 MiB (3%)
Language : Russian
Audio #2
ID : 3
Format : DTS
Format/Info : Digital Theater Systems
Codec ID : A_DTS
Duration : 1h 28mn
Bit rate mode : Constant
Bit rate : 1 510 Kbps
Channel(s) : 6 channels
Channel positions : Front: L C R, Side: L R, LFE
Sampling rate : 48.0 KHz
Bit depth : 24 bits
Stream size : 956 MiB (10%)
Language : English
Благодарности релизеру (2)

Торрент:

Статус:

Размер:

Зарегистрирован   [ 2011-12-16 23:16 ]

проверено

9.37 GB