Торренты   
 
 


Злоключение в третьем измерении 3D / MisAdventures in 3D (Бен Стассен) [2003 г., SideBySide]

Рейтинг 3D:
Пока никто не голосовал
Рейтинг фильма:
1 голосов
1.0
 
Вы должны быть авторизированы,
чтобы ставить оценки


Злоключение в третьем измерении 3D / MisAdventures in 3D
Год выпуска: 2003
Страна: США
Жанр: познавательно-развлекательный, приключения, 3D
Продолжительность: 42 мин
Перевод: Профессиональный (одноголосый)
Режиссер: Бен Стассен
В ролях: Ким Дельгадо, Стюарт Пэнкин
Описание: Профессор и Макс снова готовы действовать! На этот раз их ждут "Происшествие в третьем измерении". Этот своего рода сиквел, продолжение предыдущего фильма "Встречи в третьем измерении".
По сюжету профессор Турсинович из Института трехмерных технологий и его верный робот Макс попадают в своеобразную пространственную ловушку, в неизвестную зону, замкнутую между двухмерным и трехмерным пространствами. Более того, они неожиданно узнают, что Институт, в котором находится оборудование, необходимое для того, что им вернуться домой, скоро закрывается. И закрывается навсегда!
Пытаясь достучаться до совета директоров Института (до их сердца, совести и ума), Профессор и Макс переживают ряд удивительных приключений, лучшим образом раскрывающих возможности трехмерных технологий. И вот здесь, казалось бы, обычные визуальные эффекты, такие как перспектива, окклюзия, относительность движения и т.п. — приобретают совершенно новое качество, поскольку воспроизводятся на гигантском экране, и даже не на экране просто, а прямо в зале — объемно, зримо и почти осязаемо! Посмотрев этот фильм, вы уже никогда не сможете воспринимать мир таким, каким видели его прежде.
Между тем Профессор и Макс, не оставляя своих усилий вернуться домой, фактически открывают новую главу в истории современного трехмерного кинематографа, расширяя границы так называемого "пространственного континуума". Вопрос только в том, останется ли третье измерение в его прежнем виде, когда они вернуться домой?
Доп. информация: Производство: nWave Pictures.
Формат 3d: SideBySide
Порядок ракурсов: Перекрестная пара

Скриншоты



MediaInfo

General
Format : AVI
Format/Info : Audio Video Interleave
File size : 652 MiB
Duration : 42mn 31s
Overall bit rate : 2 144 Kbps
Writing library : VirtualDub-MPEG2 build 24586/release
Video
ID : 0
Format : MPEG-4 Visual
Format profile : Advanced Simple@L5
Format settings, BVOP : Yes
Format settings, QPel : No
Format settings, GMC : No warppoints
Format settings, Matrix : Default (H.263)
Muxing mode : Packed bitstream
Codec ID : XVID
Codec ID/Hint : XviD
Duration : 42mn 31s
Bit rate : 1 748 Kbps
Width : 1 440 pixels
Height : 480 pixels
Display aspect ratio : 3.000
Frame rate : 29.970 fps
Color space : YUV
Chroma subsampling : 4:2:0
Bit depth : 8 bits
Scan type : Progressive
Bits/(Pixel*Frame) : 0.084
Stream size : 532 MiB (82%)
Writing library : XviD 1.1.2 (UTC 2006-11-01)
Audio
ID : 1
Format : AC-3
Format/Info : Audio Coding 3
Mode extension : CM (complete main)
Codec ID : 2000
Duration : 42mn 31s
Bit rate mode : Constant
Bit rate : 384 Kbps
Channel(s) : 6 channels
Channel positions : Front: L C R, Side: L R, LFE
Sampling rate : 48.0 KHz
Bit depth : 16 bits
Stream size : 117 MiB (18%)
Alignment : Aligned on interleaves
Interleave, duration : 33 ms (1.00 video frame)
Interleave, preload duration : 512 ms
Благодарности релизеру (0)

Торрент:

Статус:

Размер:

Зарегистрирован   [ 2010-12-26 16:15 ]

проверено

652 MB