Торренты   
 
 


Битва Титанов / Clash of the Titans (Луи Летерье / Louis Leterrier) [2010 г., med_bad, OverUnder]

[bad]Битва Титанов / Clash of the Titans
Год выпуска: 2010
Страна: США, Великобритания
Жанр: боевик, фэнтези, драма, приключения
Продолжительность: 01:46:07
Перевод: Профессиональный (полное дублирование)
Режиссер: Луи Летерье / Louis Leterrier
В ролях: Сэм Уортингтон, Лиам Нисон, Рэйф Файнс, Джейсон Флеминг, Джемма Артертон, Алекса Давалос, Тине Штапельфелдт, Мадс Миккельсен, Люк Эванс, Изабелла Мико
Описание: Персей, сын бога, воспитанный человеком, не смог защитить свою семью от Аида, мстительного повелителя подземного мира. Теперь ему уже нечего терять, и он добровольно соглашается возглавить опасную миссию, чтобы одержать победу над Аидом до того, как тот отберет власть у Зевса и выпустит демонов подземного царства на Землю. Возглавляя отряд бесстрашных воинов, Персей отправляется в рискованное путешествие по лабиринту запретных миров. Чтобы победить в свирепой схватке с жуткими демонами и злобными чудовищами, противостоять злому року и стать хозяином своей судьбы, он должен осознать и принять свою божественную силу.
Доп. информация: Первоначально американская премьера «Битвы Титанов» была намечена на 26 марта 2010 года. Огромный успех «Аватара» (2009) побудил киностудию попробовать, как будет смотреться фильм в трёхмерном формате. После того как тестовые просмотры прошли с огромным успехом, в конце января 2010 года было принято решение о переводе фильма полностью в 3-D, а дата выхода в прокат в связи с этим была сдвинута на неделю на 3 апреля.
Формат 3d: OverUnder / Вертикальная стереопара

Скриншоты





MediaInfo

Качество: BDRip
Формат : Matroska
Размер файла : 15,6 Гбайт
Продолжительность : 1 ч. 46 м.
Общий поток : 21,0 Мбит/сек
Видео
Идентификатор : 1
Формат : AVC
Формат/Информация : Advanced Video Codec
Параметр CABAC формата : Да
Параметр ReFrames формата : 4 кадры
Идентификатор кодека : V_MPEG4/ISO/AVC
Продолжительность : 1 ч. 46 м.
Битрейт : 19,5 Мбит/сек
Ширина : 1920 пикс.
Высота : 1600 пикс.
Соотношение сторон : 1,194
Частота кадров : 23,976 кадр/сек
Цветовое пространство : YUV
Подвыборка цветности : 4:2:0
Битовая глубина : 8 бит
Тип развёртки : Прогрессивная
Бит/(Пиксели*Кадры) : 0.264
Размер потока : 14,4 Гбайт (93%)
Язык : English
Аудио #1
Идентификатор : 2
Формат : AC-3
Формат/Информация : Audio Coding 3
Расширение режима : CM (complete main)
Идентификатор кодека : A_AC3
Продолжительность : 1 ч. 46 м.
Вид битрейта : Постоянный
Битрейт : 448 Кбит/сек
Канал(ы) : 6 канала(ов)
Расположение каналов : Front: L C R, Side: L R, LFE
Частота : 48,0 КГц
Битовая глубина : 16 бит
Метод сжатия : С потерями
Размер потока : 340 Мбайт (2%)
Заголовок : Dublyazh AC3 5.1 448 kbps
Язык : Russian
Аудио #2
Идентификатор : 3
Формат : AC-3
Формат/Информация : Audio Coding 3
Расширение режима : CM (complete main)
Идентификатор кодека : A_AC3
Продолжительность : 1 ч. 46 м.
Вид битрейта : Постоянный
Битрейт : 640 Кбит/сек
Канал(ы) : 6 канала(ов)
Расположение каналов : Front: L C R, Side: L R, LFE
Частота : 48,0 КГц
Битовая глубина : 16 бит
Метод сжатия : С потерями
Размер потока : 486 Мбайт (3%)
Язык : English
Комментарии:





Да он тут уже есть!!!
 

Разрешение добавьте 1 920px × 1 600px, а лучше полную медиа информацию.
 

Повтор!
 

Там 720р. Пусть будет. Может кому и нужно. Удалить ни когда не поздно.
 

Какое разрешение в этом фильме?
 

Народ я дико извиняюсь, я первый раз создавал тему на раздачу.
Но данное видео по качеству выше, да и по разрешению выше.
Такого разрешения я тут не видел, но конечно Вам решить оставить это видео или нет, но я думаю я научусь все правильно делать.
 

Bce_Doctallo
Медиаинфо желательно подробное, с параметрами кодирования.
 

Bce_Doctallo
Медиаинфо желательно подробное, с параметрами кодирования.
Извини Dag13, просто это взято с rutracker.org, и какое там было описание, то и использовал. И кстати спасибо за отредактированную первую картинку, если я правильно понял, её надо было в постер класть, т.е. ссылку на картинку так?
 

Ну первый блин как говорится!!!Я когда первую раздачу создавал тоже накосячил не по детски! :)))
 

если я правильно понял, её надо было в постер класть, т.е. ссылку на картинку так?
Да, но если пропустили, то потом "изменить" и добавить сместить в право
Код:
[img=right]прямая ссылка на картинку[/img]
 

Bce_Doctallo
Извиняться не за что, все мы когда то начинали. Если следовать шаблону для оформления, то косяков не будет. А по поводу медиа инфо, то лучше скачать программу которая так и называется, и выкладывать данные по факту. Рутрекер ресурс конечно уважаемый, но все таки.
 

3D плоское !! Сам фильм мне понравился ) а 3d разочаровало.
 

3D плоское !! 3d разочаровало.
На то и медальки у нас "Не рекомендуется смотреть в 3Д, нет объема или плохая конвертация 2Д-3Д". Это не настоящий 3Д фильм снятый двумя камерами, а перевод в псевдостерео из 2Д фильма, таких фильмов сейчас много, качество 2Д-3Д перевода разное, в "Алисе" оно неплохое, правда там половина в реальном 3Д.
 

Я в аймаксе смотрел...реально "трудный" фильм даже для просмотра в кинотеатре...местами 3Д давит...впечатление неоднозначное...В общем кинотеатр разачаровал, думаю это тот случай когда обыкновенный оригинал лучше)))
 

Топик был перенесен из форума Фильмы HD в форум Архив

Zagruzin