Торренты   
 
 


Цыпленок Цыпа в 3Д / Chicken Little 3D (Марк Диндал / Mark Dindal) [2005 г., Anamorph OverUnder]

Рейтинг 3D:
Пока никто не голосовал
Рейтинг фильма:
Пока никто не голосовал
 
Вы должны быть авторизированы,
чтобы ставить оценки


Цыпленок Цыпа в 3Д / Chicken Little 3D
Год выпуска: 2005
Страна: США (Walt Disney Pictures)
Жанр: Фантастика, комедия, приключения, семейный, мультфильм
Продолжительность: 01:21:14
Перевод: Профессиональный (полное дублирование)
Режиссер: Марк Диндал / Mark Dindal
В ролях: Зак Брафф, Гарри Маршалл, Don Knotts, Патрик Стюарт, Эми Седарис, Стив Занн, Джоан Кьюсак, Уоллес Шоун, Гарри Ширер
Роли дублировали:
Сергей Уманов, Адриан Ростовский, Валерий Кухарешин, Валерий Никитенко, Ксения Бржезовская ... и другие.
Описание: В основе фильма лежит старая басня про цыпленка, который вопил о том, что небеса падают на землю каждый раз, когда ему на голову падал желудь. Вот уже год, как Цыпленок пытается преодолеть позор своей ошибки (про падающие небеса) и жить как ни в чем не бывало.
Но — увы! — желающих дружить с неудачником немного, и поэтому в товарищах у него ходят такие же изгои, как и он сам. Но однажды действительно случается несчастье — пора бить тревогу! Но кто поверит Цыпленку, ведь он уже опростоволосился однажды…
Теперь будущее планеты зависит от скромных бойцов невидимого фронта: свиненка-акселерата, убогонькой уточки, золотой рыбки-мутанта и Цыпленка, с которым никто не хочет знаться…
Доп. информация: Бюджет: $150 000 000
Сборы в США: $135 386 665
Сборы в мире: $314 432 665
Для успокоения души некоторых пользователей сообщаю, раздача с Рутрекера.
C Новым годом и Рождеством!!!

Формат 3d: Anamorph OverUnder / Вертикальная анаморфная стереопара
Видео: MPEG4 Video (H264) 1920x1080i 29.97fps 8772 Kbps
Аудио 1:Russian / Dolby AC3 48000Hz 6ch 448 kbps
Аудио 2:English / Dolby AC3 48000Hz 6ch 448 kbps

Скриншоты



me

Format : MPEG-TS
File size : 5.78 GiB
Duration : 1h 21mn
Overall bit rate : 10.2 Mbps
Maximum Overall bit rate : 35.5 Mbps
Video
ID : 4113 (0x1011)
Menu ID : 1 (0x1)
Format : AVC
Format/Info : Advanced Video Codec
Format profile : Main@L4.0
Format settings, CABAC : Yes
Format settings, ReFrames : 4 frames
Format settings, GOP : M=1, N=64
Codec ID : 27
Duration : 1h 21mn
Bit rate mode : Variable
Bit rate : 8 772 Kbps
Maximum bit rate : 20.0 Mbps
Width : 1 920 pixels
Height : 1 080 pixels
Display aspect ratio : 16:9
Frame rate : 29.970 fps
Color space : YUV
Chroma subsampling : 4:2:0
Bit depth : 8 bits
Scan type : Interlaced
Scan order : Top Field First
Bits/(Pixel*Frame) : 0.141
Stream size : 4.98 GiB (86%)
Color primaries : BT.709-5, BT.1361, IEC 61966-2-4, SMPTE RP177
Transfer characteristics : BT.709-5, BT.1361
Matrix coefficients : BT.709-5, BT.1361, IEC 61966-2-4 709, SMPTE RP177
Audio #1
ID : 4352 (0x1100)
Menu ID : 1 (0x1)
Format : AC-3
Format/Info : Audio Coding 3
Mode extension : CM (complete main)
Codec ID : 129
Duration : 1h 21mn
Bit rate mode : Constant
Bit rate : 448 Kbps
Channel(s) : 6 channels
Channel positions : Front: L C R, Side: L R, LFE
Sampling rate : 48.0 KHz
Bit depth : 16 bits
Video delay : 29ms
Stream size : 260 MiB (4%)
Language : Russian
Audio #2
ID : 4353 (0x1101)
Menu ID : 1 (0x1)
Format : AC-3
Format/Info : Audio Coding 3
Mode extension : CM (complete main)
Codec ID : 129
Duration : 1h 21mn
Bit rate mode : Constant
Bit rate : 448 Kbps
Channel(s) : 6 channels
Channel positions : Front: L C R, Side: L R, LFE
Sampling rate : 48.0 KHz
Bit depth : 16 bits
Video delay : 29ms
Stream size : 260 MiB (4%)
Language : English
Благодарности релизеру (0)

Торрент:

Статус:

Размер:

Зарегистрирован   [ 2010-12-26 20:19 ]

проверено

5.78 GB

 
Комментарии:

1, 2, 3  След.






Аnатоliy052
Толик, и тебя с Новым Годом! Это типа того, что по 2х2 шло?
 

народ выложите пожалуйста ПУНКТ НАЗНАЧЕНИЯ 4 только не анаглиф
 

 

 

Аnатоliy052
Не хочешь мне отвечать?
 

tom505
я не знаю такого канала 2х2, на нтв+, и в кабельной сети нашего города его нет.
 

народ выложите пожалуйста ПУНКТ НАЗНАЧЕНИЯ 4 только не анаглиф
Я с вами согласен! дайте ПУНКТ НАЗНАЧЕНИЯ 4 я 100 раз скажу спасибо!!! и желательно 1920 на 1080
 

http://rutracker.org/forum/viewtopic.php?t=3224830 Вот вам ваш пункт назначения.
 

http://rutracker.org/forum/viewtopic.php?t=3224830 Вот вам ваш пункт назначения.
Я от туда качал на 53 минуте присутствует сбой, не совпадает видео со звуком.
 

Отлично, избавил меня от лишней работы.
 

slach
С плюсов?
 

Всех с Наступающим Новым Годом !!!
Анатолий ОГРОМНОЕ СПАСИБО за мультик !!! (никогда его не смотрела)
Пункт Назначения 4_ мне там (http://rutracker.org/forum/viewtopic.php?t=3224830) - понравился, а звук отстает по времени совсем немного в одном месте , а потом опять все нормально!
 

Всех с Наступающим Новым Годом !!!
Анатолий ОГРОМНОЕ СПАСИБО за мультик !!! (никогда его не смотрела)
Пункт Назначения 4_ мне там (http://rutracker.org/forum/viewtopic.php?t=3224830) - понравился, а звук отстает по времени совсем немного в одном месте , а потом опять все нормально!
Дело в том что этот фильм я смотрел не на ПК а на 3D Самсунг.
Но этот вопрос я решил 1. ImTOO HD Video Converter 6
2. SolveigMM AVI Trimmer
3. VirtualDub Russian
Спасибо за то что вы мне ответили. Всех с Наступающим Новым Годом!!!
 

ну вы хотя бы написали что сдерли раздачу с рутрекера. Так любой дурак сможет. Вопрос первый откуда первоисточник. Рип вы делали????
 

Да сдёр раздачу, рип не делал.
 

ну вы хотя бы написали что сдерли раздачу с рутрекера. Так любой дурак сможет. Вопрос первый откуда первоисточник. Рип вы делали????
А я что, господин "не дурак", отчитываться перед тобой должен?
 

Вопросов больше не имею. Так какого хрена ныл чтоб тебе каролину выложил. Ну и контингент тут собрался. Передо мной не надо отчитываться, перед людьми.
 

А ты выложил её, Каролину? Люди, кто чем то не доволен, пусть чешут в магазин. С рутрекера содрана раздача, что это меняет?
 

Пусть чешут, и ты в том числе.
 

Пусть чешут, и ты в том числе.
Ты че ра*****ся, крендель?
 

Страница 1 из 3

1, 2, 3  След.