Торренты   
 
 


Вольт / Volt (Байрон Ховард,Крис Уильямс) [2008 г., Anaglyph, red'cyan]

Вольт / Volt
Год выпуска: 2008
Страна: США
Жанр: фэнтези, комедия, семейный
Продолжительность: 1ч 36мин
Перевод: Профессиональный (полное дублирование)
Режиссер: Байрон Ховард,Крис Уильямс
В ролях: Владимир Вдовиченков, Маша Иващенко, Анжела Белянская, Леонид Барац, Владимир Майсурадзе, Александр Стефанцов, Ростислав Хаит, Камиль Ларин, Александр Демидов
Описание: Пёс по кличке Вольт всю жизнь снимается в телевизионном сереале,где его герой-суперпёс-спасает человечество,используя свои необычайные способности.Сам Вольт свято верит в свою неуязвимость,невероятную силу,и умение летать.Когда он поподает в полный опасностей большой город,он всё ещё думает,что это-лишь очередной эпизод телесериала...
Доп. информация: В папке 2 файла,это один фильм поделённый на две части.
Формат 3d: Anaglyph
Цвета очков:

Скриншоты


mi

1 часть
General
Format : AVI
Format/Info : Audio Video Interleave
File size : 696 MiB
Duration : 50mn 14s
Overall bit rate : 1 936 Kbps
Writing application : Lavf51.12.1
Video
ID : 0
Format : MPEG-4 Visual
Format profile : Simple@L1
Format settings, BVOP : No
Format settings, QPel : No
Format settings, GMC : No warppoints
Format settings, Matrix : Default (H.263)
Codec ID : DX50
Codec ID/Hint : DivX 5
Duration : 50mn 14s
Bit rate : 1 795 Kbps
Width : 640 pixels
Height : 480 pixels
Display aspect ratio : 4:3
Frame rate : 29.970 fps
Color space : YUV
Chroma subsampling : 4:2:0
Bit depth : 8 bits
Scan type : Progressive
Bits/(Pixel*Frame) : 0.195
Stream size : 645 MiB (93%)
Writing library : Lavc51.40.4
Audio
ID : 1
Format : MPEG Audio
Format version : Version 1
Format profile : Layer 3
Mode : Joint stereo
Mode extension : MS Stereo
Codec ID : 55
Codec ID/Hint : MP3
Duration : 50mn 14s
Bit rate mode : Constant
Bit rate : 128 Kbps
Channel(s) : 2 channels
Sampling rate : 44.1 KHz
Stream size : 46.0 MiB (7%)
Alignment : Aligned on interleaves
Interleave, duration : 26 ms (0.78 video frame)
2 часть
General
Format : AVI
Format/Info : Audio Video Interleave
File size : 450 MiB
Duration : 39mn 38s
Overall bit rate : 1 589 Kbps
Writing application : Lavf51.12.1
Video
ID : 0
Format : MPEG-4 Visual
Format profile : Simple@L1
Format settings, BVOP : No
Format settings, QPel : No
Format settings, GMC : No warppoints
Format settings, Matrix : Default (H.263)
Codec ID : DX50
Codec ID/Hint : DivX 5
Duration : 39mn 38s
Bit rate : 1 447 Kbps
Width : 640 pixels
Height : 480 pixels
Display aspect ratio : 4:3
Frame rate : 29.970 fps
Color space : YUV
Chroma subsampling : 4:2:0
Bit depth : 8 bits
Scan type : Progressive
Bits/(Pixel*Frame) : 0.157
Stream size : 410 MiB (91%)
Writing library : Lavc51.40.4
Audio
ID : 1
Format : MPEG Audio
Format version : Version 1
Format profile : Layer 3
Mode : Joint stereo
Mode extension : MS Stereo
Codec ID : 55
Codec ID/Hint : MP3
Duration : 39mn 38s
Bit rate mode : Constant
Bit rate : 128 Kbps
Channel(s) : 2 channels
Sampling rate : 44.1 KHz
Stream size : 36.3 MiB (8%)
Alignment : Aligned on interleaves
Interleave, duration : 26 ms (0.78 video frame)
.torrent
Торрент: Не зарегистрирован

Скачать

11 KB

Добавлен: 2010-12-30 12:56
Скачано: 1528 раз  [ Список скачавших ]
   
Комментарии:





Странно, скрины мутные почему-то... Он как-то выходил в анаглифе давно, там было псевдо, это не та версия?
 

Да, по скринам жуть.
 

скорее всего псевдо.. на первом же скрине видно, что ракурсы совершенно разные и не стыкуются.
 

Страшные картинки :)
 

можно детей пугать (:) получается, фейк...
 

К сожалению фейк. Это видно по первому скрину, на одном ракурсе лапа вытянута, на втором уже поджата.
 

Топик был перенесен из форума Фильмы в форум Архив

Zagruzin