Торренты   
 
 


Космический охотник: Приключения в Запретной зоне 3D / Spacehunter: Adventures in the Forbidden 3D (Ламонт Джонсон / Lamont Johnson) [1983 г., Anamorph SideBySide]

Рейтинг 3D:
Пока никто не голосовал
Рейтинг фильма:
Пока никто не голосовал
 
Вы должны быть авторизированы,
чтобы ставить оценки


Космический охотник: Приключения в Запретной зоне 3D / Spacehunter: Adventures in the Forbidden 3D
Год выпуска: 1983
Страна: США
Жанр: фантастика, приключения
Продолжительность: 01:29:34
Перевод: Профессиональный (многоголосый, закадровый)
Режиссер: Ламонт Джонсон / Lamont Johnson
В ролях: Питер Страусс, Майкл Айронсайд, Молли Рингволд, Эрни Хадсон, Андреа Марковичи, Бисон Кэрролл, Харант Алянак, Дебора Прэтт
Описание: Время действия - отдаленное будущее. Пассажирский космолайнер терпит крушение. Погибают все, кроме трех девушек, которые за минуту до взрыва успевают покинуть обреченный корабль на спасательном челноке. Следуя заложенной в него программе, челнок самостоятельно подыскивает планету для высадки. Этой планетой становится Терра-11, атмосфера которой схожа с земной. Из сводки новостей космический охотник Вулф узнает о крушении корабля и о высадке выживших пассажирок. В результате анализа запрошенной информации оказывается, что в течение долгих лет её население было охвачено чумой. Медицинская экспедиция, отправленная на планету, не смогла справиться с разбушевавшейся болезнью и Терре-11 был присвоен статус запретной зоны. Вулф сомневается, стоит ли рисковать головой и лететь на зачумленную планету, но за спасение девушек назначено огромное вознаграждение...
Формат 3d: Anamorph SideBySide
Порядок ракурсов: Перекрестная пара

Скриншоты



MediaInfo

General
Format : Matroska
File size : 3.49 GiB
Duration : 1h 29mn
Overall bit rate : 5 577 Kbps
Encoded date : UTC 2010-12-29 19:20:26
Writing application : mkvmerge v3.3.0 ('Language') built on Mar 24 2010 14:59:24
Writing library : libebml v0.8.0 + libmatroska v0.9.0
Video
ID : 1
Format : MPEG Video
Format version : Version 2
Format profile : Main@Main
Format settings, BVOP : No
Format settings, Matrix : Default
Codec ID : V_MPEG2
Codec ID/Info : MPEG 1 or 2 Video
Duration : 1h 29mn
Bit rate mode : Variable
Bit rate : 5 274 Kbps
Nominal bit rate : 9 608 Kbps
Width : 720 pixels
Height : 480 pixels
Display aspect ratio : 4:3
Frame rate : 29.970 fps
Standard : NTSC
Color space : YUV
Chroma subsampling : 4:2:0
Bit depth : 8 bits
Scan type : Progressive
Bits/(Pixel*Frame) : 0.509
Stream size : 3.30 GiB (95%)
Audio
ID : 2
Format : AC-3
Format/Info : Audio Coding 3
Mode extension : CM (complete main)
Codec ID : A_AC3
Duration : 1h 29mn
Bit rate mode : Constant
Bit rate : 192 Kbps
Channel(s) : 2 channels
Channel positions : Front: L R
Sampling rate : 48.0 KHz
Bit depth : 16 bits
Stream size : 123 MiB (3%)
Language : Russian
Благодарности релизеру (0)

Торрент:

Статус:

Размер:

Зарегистрирован   [ 2010-12-30 20:17 ]

© закрыто правообладателем

3.49 GB