Торренты   
 
 

 

Монстры против Пришельцев-3D / Monsters vs Aliens-3D (Роб Леттерман, Конрад Вернон) [2009 г., Anaglyph, red'cyan]

Рейтинг 3D:
50 голосов
8.7
Рейтинг фильма:
49 голосов
8.4
 
Вы должны быть авторизированы,
чтобы ставить оценки


Монстры против Пришельцев-3D / Monsters vs Aliens-3D
Год выпуска: 2009
Страна: США
Жанр: Комедия, фантастика, мультфильм
Продолжительность: 01:27:29
Перевод: Профессиональный (полное дублирование)
Режиссер: Роб Леттерман, Конрад Вернон
В ролях: Риз Уизерспун
Сет Роген
Хью Лори
Уилл Арнетт
Кифер Сазерленд
Рэйн Уилсон
Стефен Колбер
Пол Радд
Джули Уайт
Джефри Тэмбор
Описание: В Сюзан Мёрфи, девушку из Калифорнии, прямо в день ее свадьбы попадает метеорит, полный всякой дряни из космоса, в результате чего она вдруг начинает расти и вырастает до пятнадцати метров. Встревоженные появлением нового монстра, военные сразу берутся за дело: Сюзан отлавливают и увозят на секретную правительственную базу.
Там её переименовывают в Гигантику и запирают вместе с другими монстрами: гениальным, но насекомоголовым доктором наук Тараканом; брутальным рыбочеловеком по кличке Недостающее Звено; желеподобным и неубиваемым Б. О. Бом и стометровым Насекомозавром. Правда, их тюремное заключение длится недолго: на Землю нападает инопланетный робот, и отчаявшийся Президент, поддавшись уговорам генерала Воякера, отправляет разношерстную команду монстров на спасение планеты от неминуемой гибели
Формат 3d: Anaglyph
Цвета очков:

Скриншоты



me

General
Format : AVI
Format/Info : Audio Video Interleave
File size : 1.35 GiB
Duration : 1h 27mn
Overall bit rate : 2 212 Kbps
Writing application : Nandub v2.01 The advanced compression technology is developed by Neiromaster
Writing library : Nandub 2.01 modified by Neiromaster
Video
ID : 0
Format : MPEG-4 Visual
Format settings, BVOP : Yes
Format settings, QPel : No
Format settings, GMC : No warppoints
Format settings, Matrix : Default (H.263)
Muxing mode : Packed bitstream
Codec ID : DX50
Codec ID/Hint : DivX 5
Duration : 1h 27mn
Bit rate : 2 014 Kbps
Width : 720 pixels
Height : 304 pixels
Display aspect ratio : 2.35:1
Frame rate : 23.976 fps
Color space : YUV
Chroma subsampling : 4:2:0
Bit depth : 8 bits
Scan type : Progressive
Bits/(Pixel*Frame) : 0.384
Stream size : 1.23 GiB (91%)
Writing library : DivX 6.8.5 (UTC 2009-08-20)
Audio
ID : 1
Format : AC-3
Format/Info : Audio Coding 3
Mode extension : CM (complete main)
Codec ID : 2000
Duration : 1h 27mn
Bit rate mode : Constant
Bit rate : 192 Kbps
Channel(s) : 2 channels
Channel positions : Front: L R
Sampling rate : 48.0 KHz
Bit depth : 16 bits
Stream size : 120 MiB (9%)
Alignment : Split accross interleaves
Interleave, duration : 200 ms (4.80 video frames)
Interleave, preload duration : 200 ms
Остальные раздачи этого фильма (7)
Благодарности релизеру (0)

Торрент:

Статус:

Размер:

Зарегистрирован   [ 2011-01-05 15:26 ]

проверено

1.35 GB

 
 Мнение о фильме (9)





Мульт так себе , для детишек . Но 3Д очень прикольное ... Смотрел правда BD3D на LG LM55660S. Вылезания и вылеты из экрана очень эффектные..
 

3д очень прикольное.
 
Виталий Цыганов Профиль 16-Апр-2013 20:54

Мульт классный, юмор не тупой, очень смешно. Правда в конце немного скушновато. Но почти весь мульт - интересно и смешно!
 

В сюжет не вникал,дети смотрели,но эффекты и звук просто супер!Смотрел на Philips 37PFL6007k. Спасибо!
 

дети довольны смотрели на lg47lm640t
 

хороший мультик, 3d тоже на высоте
 

Отличный мультфильм с оригинальным юмором и переводом 3D эффекты на высоте.
 

Мультик хороший. Но для "семейного просмотра" я бы посоветовал какой-нибудь другой мультфильм... А для детей - отлично.
 

классный фильм. спасибо за раздачу.