Торренты   
 
 


Укротитель бутылок [2010 г., Anamorph OverUnder]

Рейтинг 3D:
Пока никто не голосовал
Рейтинг фильма:
Пока никто не голосовал
 
Вы должны быть авторизированы,
чтобы ставить оценки


Укротитель бутылок
Год выпуска: 2010
Жанр: Компьютерная анимация
Продолжительность: 4mn 17s

MediaInfo

Format : MPEG-4
Format profile : Base Media / Version 2
Codec ID : mp42
File size : 89.3 MiB
Duration : 4mn 17s
Overall bit rate : 2 910 Kbps
Video #1
ID : 1
Format : AVC
Format/Info : Advanced Video Codec
Format profile : High@L4.0
Format settings, CABAC : Yes
Format settings, ReFrames : 1 frame
Codec ID : avc1
Codec ID/Info : Advanced Video Coding
Duration : 4mn 17s
Bit rate mode : Variable
Bit rate : 2 777 Kbps
Maximum bit rate : 17.6 Mbps
Width : 1 920 pixels
Height : 1 080 pixels
Display aspect ratio : 16:9
Frame rate mode : Constant
Frame rate : 25.000 fps
Color space : YUV
Chroma subsampling : 4:2:0
Bit depth : 8 bits
Scan type : Progressive
Bits/(Pixel*Frame) : 0.054
Stream size : 85.2 MiB (95%)
Audio #2
ID : 2
Format : AAC
Format/Info : Advanced Audio Codec
Format version : Version 4
Format profile : LC
Codec ID : 40
Duration : 4mn 17s
Bit rate mode : Variable
Bit rate : 128 Kbps
Maximum bit rate : 172 Kbps
Channel(s) : 2 channels
Channel positions : Front: L R
Sampling rate : 44.1 KHz
Compression mode : Lossy
Stream size : 3.91 MiB (4%)
Формат 3d: Anamorph OverUnder

Скриншоты

Благодарности релизеру (0)

Торрент:

Статус:

Размер:

Зарегистрирован   [ 2011-01-06 11:14 ]

проверено

89 MB