Торренты   
 
 


Окаванго 3D. Африканское сафари / African Adventure: Safari in the Okavango 3D (Бен Стассен) [2007 г., Anamorph OverUnder]

Рейтинг 3D:
Пока никто не голосовал
Рейтинг фильма:
Пока никто не голосовал
 
Вы должны быть авторизированы,
чтобы ставить оценки


Окаванго 3D. Африканское сафари / African Adventure: Safari in the Okavango 3D
Год выпуска: 2007
Страна: Бельгия
Жанр: приключения / документальный
Продолжительность: 00:40:00
Перевод: Отсутствует
Режиссер: Бен Стассен
В ролях: Тим Ливерседж, Лисль Айхенбергер, Джун Ливерседж
Описание: Для многих из нас Африка была и остается далеким и недоступным континентом. У зрителей этого трехмерного фильма появилась уникальная возможность посетить дельту реки Окаванго, крупнейший и уникальный район дикой природы, прямо в удобных креслах кинотеатра IMAX.
Невероятной красоты трехмерные пейзажи разворачиваются по берегам реки, вдоль которой зрители путешествуют в компании зоолога Лисля Айхенбергера и режиссера-документалиста Тима Ливерседжа, исследователями этого региона, где не ступала нога человека. Путешествие начнется от главного русла, в том месте, где оно разветвляется на многочисленные протоки, раскинувшиеся на 20 км в ширину по равнине, покрытой камышом, и проследует в самое сердце этого водного царства, где зрители встретятся лицом к лицу с гиппопотамами, крокодилами, слонами, львами и множеством разновидностей антилоп.
Формат 3d: Anamorph OverUnder

Скриншоты

MediaInfo

General
Format : Matroska
File size : 2.28 GiB
Duration : 39mn 17s
Overall bit rate : 8 302 Kbps
Encoded date : UTC 2010-11-30 00:33:34
Writing application : mkvmerge v4.3.0 ('Escape from the Island') built on Sep 5 2010 10:30:51
Writing library : libebml v1.0.0 + libmatroska v1.0.0
Video
ID : 1
Format : AVC
Format/Info : Advanced Video Codec
Format profile : High@L5.1
Format settings, CABAC : Yes
Format settings, ReFrames : 2 frames
Muxing mode : Header stripping
Codec ID : V_MPEG4/ISO/AVC
Duration : 39mn 17s
Bit rate : 7 817 Kbps
Width : 1 920 pixels
Height : 1 080 pixels
Display aspect ratio : 16:9
Frame rate : 29.970 fps
Color space : YUV
Chroma subsampling : 4:2:0
Bit depth : 8 bits
Scan type : Progressive
Bits/(Pixel*Frame) : 0.126
Stream size : 2.15 GiB (94%)
Audio
ID : 2
Format : MPEG Audio
Format version : Version 1
Format profile : Layer 3
Muxing mode : Header stripping
Codec ID : A_MPEG/L3
Codec ID/Hint : MP3
Duration : 39mn 17s
Bit rate mode : Constant
Bit rate : 320 Kbps
Channel(s) : 2 channels
Sampling rate : 48.0 KHz
Video delay : 8ms
Stream size : 89.9 MiB (4%)
Writing library : LAME3.97
Благодарности релизеру (0)

Торрент:

Статус:

Размер:

Зарегистрирован   [ 2011-01-06 11:17 ]

проверено

2.28 GB