Торренты   
 
 


Elephants Dream 3D [2007 г., SideBySide]

Рейтинг 3D:
Пока никто не голосовал
Рейтинг фильма:
Пока никто не голосовал
 
Вы должны быть авторизированы,
чтобы ставить оценки


Elephants Dream 3D

Год выпуска: 2007
Страна: Нидерланды
Жанр: 3D-анимация
Продолжительность: 00:10:53
Режиссер: Басам Курдали / Bassam Kurdali
Перевод: любительский одноголосый
Описание: Два сказочных персонажа попадают внутрь персонального компьютера. Их зовут Эмо (Emo) и Пруг (Proog). Они вместе открывают гигантский по сравнению с ними мир, который является корпусом компьютера. Они удивляются таинственным звукам и архитектуре, в то время как зритель может узнать модули оперативной памяти, кулер, модем и прочее.
Главная особенность данного мультфильма состоит в том, что он создан не с помощью дорогих профессиональных программ 3d-анимации, типа Maya, а с помощью бесплатной программы моделирования и анимации - Blender. Собственно, основная цель создания — показать возможности этой удивительной программы.
Формат 3d: SideBySide
Порядок ракурсов: Параллельная пара

Скриншоты

MediaInfo

General
Format : Matroska
File size : 401 MiB
Duration : 10mn 53s
Overall bit rate : 5 147 Kbps
Encoded date : UTC 2011-01-06 16:23:01
Writing application : mkvmerge v3.3.0 ('Language') built on Mar 24 2010 14:59:24
Writing library : libebml v0.8.0 + libmatroska v0.9.0
Video #1
ID : 1
Format : MPEG-4 Visual
Format profile : AdvancedSimple@L5
Format settings, BVOP : Yes
Format settings, QPel : No
Format settings, GMC : No warppoints
Format settings, Matrix : Default (H.263)
Codec ID : XVID
Codec ID/Hint : XviD
Duration : 10mn 53s
Bit rate : 4 853 Kbps
Width : 3 840 pixels
Height : 1 038 pixels
Display aspect ratio : 3.699
Frame rate : 25.000 fps
Resolution : 24 bits
Colorimetry : 4:2:0
Scan type : Progressive
Bits/(Pixel*Frame) : 0.049
Stream size : 378 MiB (94%)
Writing library : XviD 1.2.1 (UTC 2008-12-04)
Language : Russian
Audio #2
ID : 2
Format : AC-3
Format/Info : Audio Coding 3
Codec ID : A_AC3
Duration : 10mn 53s
Bit rate mode : Constant
Bit rate : 192 Kbps
Channel(s) : 2 channels
Channel positions : L R
Sampling rate : 48.0 KHz
Stream size : 15.0 MiB (4%)
Language : Russian
Благодарности релизеру (0)

Торрент:

Статус:

Размер:

Зарегистрирован   [ 2011-12-17 18:26 ]

проверено

401 MB