Торренты   
 
 

 

В гости к Робинсонам в 3Д / Meet the Robinsons 3D (Стивен Дж. Андерсон) [2007 г., Anamorph SideBySide]

Рейтинг 3D:
2 голосов
8.5
Рейтинг фильма:
2 голосов
8.5
 
Вы должны быть авторизированы,
чтобы ставить оценки


В гости к Робинсонам в 3Д / Meet the Robinsons 3D
Год выпуска: 2007
Страна: США (Walt Disney Animation Studios, Walt Disney Pictures)
Жанр: фантастика, комедия, приключения, семейный, мультфильм
Продолжительность: 1:30:08
Перевод: Профессиональный (полное дублирование)
Режиссер: Стивен Дж. Андерсон
В ролях: Анджела Бассетт, Дэниэл Хансен, Джордан Фрай, Мэттью Майкл Джостен, Джон Х. Х. Форд, Дара МакГарри, Том Кенни, Лори Меткаф, Дон Холл, Пол Батчер.... Роли дублировали: (Елена Соловьева, Денис Зубарев, Руслан Кулешов, Александр Воеводин, Ольга Голованова...)
Описание: Льюис растет без родителей и страстно мечтает найти свою семью. На счастье, у Льюиса неуемное воображение и поразительные способности к изобретению разных фантастических приспособлений. Из разных попавшихся под руку деталей он мастерит устройство для проявки воспоминаний, чтобы увидеть хотя бы лицо своей мамы, которая еще младенцем подбросила его в сиротский приют.
Но на школьной выставке, где Льюис должен представить свой сканер памяти в действии, происходит невероятное. Сначала Льюис знакомится со своим ровесником Уилбером, который представляется прилетевшим из будущего сотрудником «Службы контроля времени». А потом еще один пришелец, зловещий тип в черном котелке, похищает изобретение Льюиса и устраивает на выставке полнейший разгром. Чтобы поймать мошенника и вернуть все на свои места, ребята отправятся в будущее, где Льюиса ждет масса захватывающих приключений.
Он прокатится на машине времени, подружится с роботом Карлом, поучаствует в схватке со сторожевым динозавром, спасет весь мир от происков злодея и его котелка, а самое главное — познакомится с многочисленной, дружной и взбалмошной семейкой Робинсонов, и найдет в их лице долгожданных родственников.
Доп. информация: http://www.kinopoisk.ru/level/1/film/70954/
http://www.imdb.com/title/tt0396555/
автор рипа slach
"скопипровано" с рутрекера.орг
Качество: HDTV
Формат: TS
Формат 3D: Half SideBySide / Горизонтальная анаморфная стереопара
Видео кодек: h.264
Аудио кодек: AC3
Видео: MPEG4 Video (H264) 1920x1080 25.00fps ~15 mbit
Аудио: Russian: Dolby AC3 48000Hz 2ch 448 Kbps
Формат 3d: Anamorph SideBySide
Порядок ракурсов: Параллельная пара

Скриншоты












MediaInfo

Общее
Идентификатор : 1 (0x1)
Полное имя : Meet the Robinsons.3D.HDTV.hsbs.ts
Формат : MPEG-TS
Формат/Информация : Advanced Video Codec
Размер файла : 10,3 Гбайт
Продолжительность : 1 ч. 31 м.
Общий поток : 16,2 Мбит/сек
Максимальный общий битрейт : 35,5 Мбит/сек
Видео
Идентификатор : 4113 (0x1011)
Идентификатор меню : 1 (0x1)
Формат : AVC
Формат/Информация : Advanced Video Codec
Профиль формата : Main@L4.0
Параметр CABAC формата : Да
Параметр ReFrames формата : 3 кадры
Идентификатор кодека : 27
Продолжительность : 1 ч. 31 м.
Вид битрейта : Переменный
Битрейт : 14,9 Мбит/сек
Максимальный битрейт : 40,0 Мбит/сек
Ширина : 1920 пикс.
Высота : 1080 пикс.
Соотношение сторон : 16:9
Частота кадров : 25,000 кадр/сек
Стандарт вещания : Component
Цветовое пространство : YUV
Подвыборка цветности : 4:2:0
Битовая глубина : 8 бит
Тип развёртки : Чересстрочная
Порядок развёртки : Верхнее поле первое
Бит/(Пиксели*Кадры) : 0.288
Размер потока : 9,50 Гбайт (92%)
Основные цвета : BT.709-5, BT.1361, IEC 61966-2-4, SMPTE RP177
Характеристики трансфера : BT.709-5, BT.1361
Коэффициенты матрицы : BT.709-5, BT.1361, IEC 61966-2-4 709, SMPTE RP177
Аудио
Идентификатор : 4352 (0x1100)
Идентификатор меню : 1 (0x1)
Формат : AC-3
Формат/Информация : Audio Coding 3
Расширение режима : CM (complete main)
Идентификатор кодека : 129
Продолжительность : 1 ч. 31 м.
Вид битрейта : Постоянный
Битрейт : 448 Кбит/сек
Канал(ы) : 2 канала(ов)
Расположение каналов : Front: L R
Частота : 48,0 КГц
Битовая глубина : 16 бит
Метод сжатия : С потерями
Задержка видео : -223 мс.
Размер потока : 292 Мбайт (3%)
Язык : Russian
Остальные раздачи этого фильма (2)
Благодарности релизеру (0)

Торрент:

Статус:

Размер:

Зарегистрирован   [ 2011-01-07 09:53 ]

проверено

10.3 GB