Торренты   
 
 


Летающие чудовища в 3Д / Sir David Attenborough's Flying Monsters 3D (Matthew Dyas) [2010 г., Anamorph SideBySide ]

Рейтинг 3D:
Пока никто не голосовал
Рейтинг фильма:
Пока никто не голосовал
 
Вы должны быть авторизированы,
чтобы ставить оценки


Летающие чудовища в 3Д / Sir David Attenborough's Flying Monsters 3D
Год выпуска: 2010
Страна: США
Жанр: Документальный
Продолжительность: 01:07:13
Перевод: Отсутствует
Режиссер: Matthew Dyas
Описание: Рождественская премьера от Дэвида Аттенборо на канале SKY.
В фильме исследуется эволюция птеродактелей - огромных летающих ящеров, живших 200 млн. лет назад.
фильм также выйдет в прокат на IMAX в 2011 году.
Качество: HDTVrip
Формат: MKV
Видео кодек: x264
Аудио кодек: AC3
Видео: MPEG4 Video (H264) 1920x1080p 25 fps 4001 Kbps
Аудио: English Dolby AC3 48000Hz 2ch 192 Kbps
Формат 3D: Anamorph SideBySide / Горизонтальная анаморфная стереопара
скопировано с рутрекер.орг

Скриншоты





MediaInfo

Format : Matroska
File size : 1.97 GiB
Duration : 1h 7mn
Overall bit rate : 4 195 Kbps
Encoded date : UTC 2010-12-28 15:45:04
Writing application : mkvmerge v4.3.0 ('Escape from the Island') built on Sep 5 2010 10:30:51
Writing library : libebml v1.0.0 + libmatroska v1.0.0
Video
ID : 1
Format : AVC
Format/Info : Advanced Video Codec
Format profile : High@L4.0
Format settings, CABAC : Yes
Format settings, ReFrames : 4 frames
Muxing mode : Container profile=Unknown@4.0
Codec ID : V_MPEG4/ISO/AVC
Duration : 1h 7mn
Bit rate : 4 001 Kbps
Width : 1 920 pixels
Height : 1 080 pixels
Display aspect ratio : 16:9
Frame rate : 25.000 fps
Color space : YUV
Chroma subsampling : 4:2:0
Bit depth : 8 bits
Scan type : Progressive
Bits/(Pixel*Frame) : 0.077
Stream size : 1.84 GiB (93%)
Writing library : x264 core 105 r1724 b02df7b
Encoding settings : cabac=1 / ref=3 / deblock=1:0:0 / analyse=0x3:0x113 / me=hex / subme=7 / psy=1 / psy_rd=1.00:0.00 / mixed_ref=1 / me_range=16 / chroma_me=1 / trellis=1 / 8x8dct=1 / cqm=0 / deadzone=21,11 / fast_pskip=1 / chroma_qp_offset=-2 / threads=3 / sliced_threads=0 / nr=0 / decimate=1 / interlaced=0 / constrained_intra=0 / bframes=3 / b_pyramid=2 / b_adapt=1 / b_bias=0 / direct=1 / weightb=1 / open_gop=0 / weightp=2 / keyint=250 / keyint_min=25 / scenecut=40 / intra_refresh=0 / rc_lookahead=40 / rc=2pass / mbtree=1 / bitrate=4001 / ratetol=1.0 / qcomp=0.60 / qpmin=10 / qpmax=51 / qpstep=4 / cplxblur=20.0 / qblur=0.5 / ip_ratio=1.40 / aq=1:1.00
Audio
ID : 2
Format : AC-3
Format/Info : Audio Coding 3
Mode extension : ME (music and effects)
Codec ID : A_AC3
Duration : 1h 7mn
Bit rate mode : Constant
Bit rate : 192 Kbps
Channel(s) : 2 channels
Channel positions : Front: L R
Sampling rate : 48.0 KHz
Bit depth : 16 bits
Stream size : 92.3 MiB (5%)
Language : English
Благодарности релизеру (2)

Торрент:

Статус:

Размер:

Зарегистрирован   [ 2011-01-08 10:47 ]

проверено

1.97 GB