Торренты   
 
 


Circus Linoluckynelli [2010 г., Anamorph SideBySide]

Рейтинг 3D:
Пока никто не голосовал
Рейтинг фильма:
Пока никто не голосовал
 
Вы должны быть авторизированы,
чтобы ставить оценки


Circus Linoluckynelli
Год выпуска: 2010
Страна: Германия | Delta Music
Жанр: документальный
Продолжительность: 00:36:12 + bonus 00:08:06
Описание:

Рип с : http://tracker.hdclub.com.ua/details.php?id=6562 ! Only 3D !
Circus Linoluckynelli - Der Zirkus von Kindern für Kinder in 3D!
Перевод не требуется

MediaInfo

General
Format : Matroska
File size : 3.81 GiB
Duration : 36mn 12s
Overall bit rate : 15.1 Mbps
Writing application : Lavf51.12.1
Writing library : Lavf51.12.1
Video #1
ID : 1
Format : AVC
Format/Info : Advanced Video Codec
Format profile : Baseline@L1.3
Format settings, CABAC : No
Format settings, ReFrames : 1 frame
Codec ID : V_MPEG4/ISO/AVC
Duration : 36mn 12s
Bit rate : 14.6 Mbps
Width : 1 920 pixels
Height : 1 080 pixels
Display aspect ratio : 16:9
Frame rate : 25.000 fps
Color space : YUV
Chroma subsampling : 4:2:0
Bit depth : 8 bits
Scan type : Progressive
Bits/(Pixel*Frame) : 0.282
Stream size : 3.70 GiB (97%)
Language : English
Audio #2
ID : 2
Format : MPEG Audio
Format version : Version 1
Format profile : Layer 3
Mode : Joint stereo
Codec ID : A_MPEG/L3
Codec ID/Hint : MP3
Duration : 36mn 12s
Bit rate mode : Constant
Bit rate : 128 Kbps
Channel(s) : 2 channels
Sampling rate : 44.1 KHz
Bit depth : 16 bits
Compression mode : Lossy
Stream size : 33.1 MiB (1%)
Language : English
Формат 3d: Anamorph SideBySide

Скриншоты






Bonus -
Благодарности релизеру (0)

Торрент:

Статус:

Размер:

Зарегистрирован   [ 2011-01-08 16:37 ]

проверено

4.66 GB