Торренты   
 
 


Легенда об Орине / Звездный патруль / Охотники за звездами / Starchaser: The Legend of Orin (Steven Hahn) [1985 г., Anamorph , OverUnder]

Рейтинг 3D:
Пока никто не голосовал
Рейтинг фильма:
Пока никто не голосовал
 
Вы должны быть авторизированы,
чтобы ставить оценки


Легенда об Орине / Звездный патруль / Охотники за звездами / Starchaser: The Legend of Orin Anamorph
Год выпуска: 1985
Страна: USA
Жанр: Приключения Анимация Фантастика
Продолжительность: 1h 33mn
Перевод: Любительский (одноголосый)
Режиссер: Steven Hahn
В ролях: Writer: Jeffrey Scott
Stars: Dennis Alwood, Carmen Argenziano and Daryl Bartley
Описание: Set on the subterranean Mine-World, a band of human worker are treated like slaves under the power of the evil overlord Zygon until one.
Доп. информация:

MediaInfo

General
Format : Windows Media
File size : 674 MiB
Duration : 1h 33mn
Overall bit rate : 1 009 Kbps
Maximum Overall bit rate : 1 009 Kbps
Movie name : Star Chaser
Video #2
ID : 2
Format : WMV1
Codec ID : WMV1
Codec ID/Info : Windows Media Video 7
Description of the codec : Windows Media Video V7
Duration : 1h 33mn
Bit rate : 879 Kbps
Width : 608 pixels
Height : 456 pixels
Display aspect ratio : 4:3
Frame rate : 29.970 fps
Bit depth : 8 bits
Bits/(Pixel*Frame) : 0.106
Stream size : 587 MiB (87%)
Audio #1
ID : 1
Format : WMA
Format version : Version 2
Codec ID : 161
Codec ID/Info : Windows Media Audio
Description of the codec : Windows Media Audio V7 - 128 kbps, 44 kHz, stereo
Duration : 1h 33mn
Bit rate : 130 Kbps
Channel(s) : 2 channels
Sampling rate : 44.1 KHz
Bit depth : 16 bits
Stream size : 87.1 MiB (13%)
Формат 3d: OverUnder Анаморф

Скриншоты






Благодарности релизеру (0)

Торрент:

Статус:

Размер:

Зарегистрирован   [ 2011-01-08 19:10 ]

проверено

674 MB