Торренты   
 
 


BoA Hurricane Venus 3D [2010 г., Anamorph SideBySide]

Рейтинг 3D:
Пока никто не голосовал
Рейтинг фильма:
Пока никто не голосовал
 
Вы должны быть авторизированы,
чтобы ставить оценки


BoA Hurricane Venus 3D
Год выпуска: 2010
Жанр: Music
Продолжительность: 3mn 22s
Описание:

MediaInfo

General
Format : Matroska
File size : 822 MiB
Duration : 3mn 22s
Overall bit rate : 34.0 Mbps
Writing library : libebml v0.7.7 + libmatroska v0.8.1
Video #1
ID : 1
Format : AVC
Format/Info : Advanced Video Codec
Format profile : High@L4.1
Format settings, CABAC : Yes
Format settings, ReFrames : 4 frames
Codec ID : V_MPEG4/ISO/AVC
Duration : 3mn 22s
Bit rate mode : Constant
Bit rate : 33.2 Mbps
Nominal bit rate : 35.0 Mbps
Width : 1 920 pixels
Height : 1 080 pixels
Display aspect ratio : 16:9
Frame rate : 23.976 fps
Standard : NTSC
Color space : YUV
Chroma subsampling : 4:2:0
Bit depth : 8 bits
Scan type : Progressive
Bits/(Pixel*Frame) : 0.668
Stream size : 803 MiB (98%)
Audio #2
ID : 2
Format : AC-3
Format/Info : Audio Coding 3
Mode extension : CM (complete main)
Codec ID : A_AC3
Duration : 3mn 22s
Bit rate mode : Constant
Bit rate : 128 Kbps
Channel(s) : 2 channels
Channel positions : Front: L R
Sampling rate : 48.0 KHz
Bit depth : 16 bits
Compression mode : Lossy
Stream size : 3.09 MiB (0%)
Формат 3d: Anamorph SideBySide

Скриншоты





Благодарности релизеру (1)

Торрент:

Статус:

Размер:

Зарегистрирован   [ 2011-12-17 02:02 ]

проверено

822 MB